<?xml version="1.0" standalone="no"?>
<!DOCTYPE svg PUBLIC "-//W3C//DTD SVG 1.1//EN" "http://www.w3.org/Graphics/SVG/1.1/DTD/svg11.dtd" >
<svg>
<metadata>
Created by FontForge 20090914 at Thu Oct 24 12:19:17 2019
 By www-data
Copyright (c) Mark Simonson, 2005. All rights reserved.
</metadata>
<defs>
<font id="ProximaNovaA-Regular" horiz-adv-x="572" >
  <font-face 
    font-family="Proxima Nova Alt Rg"
    font-weight="400"
    font-stretch="normal"
    units-per-em="1000"
    panose-1="2 0 5 6 3 0 0 2 0 4"
    ascent="790"
    descent="-210"
    x-height="483"
    cap-height="667"
    bbox="-171 -199 1053 889.998"
    underline-thickness="20"
    underline-position="-113"
    unicode-range="U+000D-U+FB02"
  />
<missing-glyph horiz-adv-x="507" 
d="M429 -90h-351v842h351v-842zM397 -60v782h-288v-782h288z" />
    <glyph glyph-name="fi" unicode="fi" horiz-adv-x="509" 
d="M171 0h-75v417h-80v66h80v37c0 49.333 12.833 87.833 38.5 115.5s59.5 41.5 101.5 41.5c30 0 54.667 -5.33301 74 -16l-19 -57c-12.667 7.33301 -27 11 -43 11c-51.333 0 -77 -31.667 -77 -95v-37h98v-66h-98v-417zM397 552c-14 0 -26 4.83301 -36 14.5
s-15 21.5 -15 35.5s5 26 15 36s22 15 36 15s25.833 -5 35.5 -15s14.5 -22 14.5 -36s-4.83301 -25.833 -14.5 -35.5s-21.5 -14.5 -35.5 -14.5zM434 0h-75v483h75v-483z" />
    <glyph glyph-name="fl" unicode="fl" horiz-adv-x="553" 
d="M171 0h-75v417h-80v66h80v37c0 49.333 12.833 87.833 38.5 115.5s59.5 41.5 101.5 41.5c30 0 54.667 -5.33301 74 -16l-19 -57c-12.667 7.33301 -27 11 -43 11c-51.333 0 -77 -31.667 -77 -95v-37h98v-66h-98v-417zM466 -12c-35.333 0 -62 9.66699 -80 29
s-27 47.333 -27 84v566h75v-550c0 -18.667 4.16699 -33.667 12.5 -45s20.5 -17 36.5 -17c22 0 38.667 7 50 21l23 -57c-22.667 -20.667 -52.667 -31 -90 -31z" />
    <glyph glyph-name=".notdef" horiz-adv-x="507" 
d="M429 -90h-351v842h351v-842zM397 -60v782h-288v-782h288z" />
    <glyph glyph-name="NUL" horiz-adv-x="0" 
 />
    <glyph glyph-name="NUL" horiz-adv-x="0" 
 />
    <glyph glyph-name="CR" unicode="&#xd;" horiz-adv-x="0" 
 />
    <glyph glyph-name="space" unicode=" " horiz-adv-x="259" 
 />
    <glyph glyph-name="exclam" unicode="!" horiz-adv-x="230" 
d="M146 187h-62l-16 480h94zM115 -10c-14.667 0 -27.5 5.5 -38.5 16.5s-16.5 23.833 -16.5 38.5c0 15.333 5.33301 28.333 16 39s23.667 16 39 16s28.333 -5.33301 39 -16s16 -23.667 16 -39c0 -14.667 -5.5 -27.5 -16.5 -38.5s-23.833 -16.5 -38.5 -16.5z" />
    <glyph glyph-name="quotedbl" unicode="&#x22;" horiz-adv-x="344" 
d="M118 412h-37.001c-18 136.667 -27 209.667 -27 219c0 12.667 4.33301 23.5 13 32.5s19.334 13.5 32.001 13.5s23.5 -4.5 32.5 -13.5s13.5 -19.833 13.5 -32.5zM262.999 412h-37.001c-18 136.667 -27 209.667 -27 219c0 12.667 4.5 23.5 13.5 32.5s19.833 13.5 32.5 13.5
s23.334 -4.5 32.001 -13.5s13 -19.833 13 -32.5z" />
    <glyph glyph-name="numbersign" unicode="#" horiz-adv-x="591" 
d="M300 0h-61l61 181h-111l-60 -181h-62l61 181h-106l17 53h107l66 199h-108l16 52h110l60 182h62l-60 -182h110l60 182h61l-61 -182h107l-15 -52h-109l-67 -199h111l-16 -53h-113zM317 234l67 199h-110l-67 -199h110z" />
    <glyph glyph-name="dollar" unicode="$" horiz-adv-x="593" 
d="M271 -100v89c-95.333 6 -171.333 41 -228 105l50 64c46 -54.667 105.333 -86 178 -94v243c-32 8.66699 -57.667 16.667 -77 24s-40.333 18 -63 32s-39.5 31.667 -50.5 53s-16.5 46.666 -16.5 75.999c0 50.667 19.333 93 58 127s88.334 53.333 149.001 58v91h61v-92
c79.333 -6.66699 145.333 -37.334 198 -92.001l-50 -61c-38.667 42.667 -88 68.334 -148 77.001v-218c25.333 -7.33301 46.166 -13.833 62.499 -19.5s35 -14 56 -25s37.667 -22.833 50 -35.5s22.833 -29.167 31.5 -49.5s13 -43.166 13 -68.499
c0 -50.667 -17.5 -94.5 -52.5 -131.5s-88.5 -58.167 -160.5 -63.5v-89h-61zM459 178c0 30 -11 53.333 -33 70s-53.333 31 -94 43v-228c44 4.66699 76.167 18 96.5 40s30.5 47 30.5 75zM150 497c0 -25.333 10.333 -45.333 31 -60s50.667 -27.667 90 -39v204
c-36 -2.66699 -65.167 -13.667 -87.5 -33s-33.5 -43.333 -33.5 -72z" />
    <glyph glyph-name="percent" unicode="%" horiz-adv-x="732" 
d="M192 348c-47.333 0 -86 15.5 -116 46.5s-45 69.833 -45 116.5c0 48 15 87.667 45 119s68.667 47 116 47s86 -15.667 116 -47s45 -71 45 -119c0 -46.667 -15 -85.5 -45 -116.5s-68.667 -46.5 -116 -46.5zM183 0h-55l426 667h56zM540 -12c-47.333 0 -86 15.667 -116 47
s-45 70.333 -45 117c0 47.333 15 86.666 45 117.999s68.667 47 116 47c46.667 0 85 -15.667 115 -47s45 -70.666 45 -117.999s-14.833 -86.5 -44.5 -117.5s-68.167 -46.5 -115.5 -46.5zM192 399c29.333 0 53.5 10.667 72.5 32s28.5 48 28.5 80
c0 33.333 -9.33301 60.833 -28 82.5s-43 32.5 -73 32.5c-29.333 0 -53.5 -10.833 -72.5 -32.5s-28.5 -49.167 -28.5 -82.5c0 -32 9.5 -58.667 28.5 -80s43.167 -32 72.5 -32zM540 39c30 0 54.333 10.667 73 32s28 48.333 28 81s-9.33301 59.834 -28 81.501
s-43 32.5 -73 32.5s-54.5 -10.833 -73.5 -32.5s-28.5 -48.834 -28.5 -81.501s9.5 -59.667 28.5 -81s43.5 -32 73.5 -32z" />
    <glyph glyph-name="ampersand" unicode="&#x26;" horiz-adv-x="642" 
d="M613 0l-104 0.00585938c-13.333 11.333 -37.666 34.666 -72.999 69.999c-54.667 -54.667 -118.667 -82 -192 -82c-60 0 -109.5 16.167 -148.5 48.5s-58.5 78.166 -58.5 137.499c0 47.333 13 86 39 116s62 57.667 108 83c-34 58 -51 108 -51 150
c0 44 16.167 80.667 48.5 110s72.166 44 119.499 44c44 0 80 -11.667 108 -35s42 -55.333 42 -96c0 -24 -4.33301 -45.5 -13 -64.5s-22.667 -36.333 -42 -52s-36.333 -27.834 -51 -36.501s-36 -20.334 -64 -35.001c21.333 -28.667 47.333 -60.334 78 -95.001
c24 -28.667 50.333 -58.334 79 -89.001c29.333 45.333 53.333 96.333 72 153l64 -29c-29.333 -70.667 -59.666 -128 -90.999 -172c41.333 -42.667 84.666 -84.667 129.999 -126zM252 50.0059c50 0 96.334 22 139.001 66c-44 46 -74.667 79.667 -92 101
c-32 36.667 -59.667 72 -83 106c-66 -40 -99 -88 -99 -144c0 -40 13.167 -71.5 39.5 -94.5s58.166 -34.5 95.499 -34.5zM210.001 521.006c0 -31.333 13.334 -69.667 40.001 -115c43.333 21.333 76.166 42 98.499 62s33.5 45 33.5 75c0 24 -7.33301 42.667 -22 56
s-33.667 20 -57 20c-26 0 -48 -9.16699 -66 -27.5s-27 -41.833 -27 -70.5z" />
    <glyph glyph-name="quotesingle" unicode="'" horiz-adv-x="199" 
d="M118 412h-37.001c-18 136.667 -27 209.667 -27 219c0 12.667 4.33301 23.5 13 32.5s19.334 13.5 32.001 13.5s23.5 -4.5 32.5 -13.5s13.5 -19.833 13.5 -32.5z" />
    <glyph glyph-name="parenleft" unicode="(" horiz-adv-x="248" 
d="M231 -164l-46 -34.998c-94 129.333 -141 276.666 -141 441.999s47 312.666 141 441.999l46 -34c-35.333 -69.333 -61.666 -135 -78.999 -197s-26 -132.333 -26 -211c0 -78 8.66699 -148.167 26 -210.5s43.666 -127.833 78.999 -196.5z" />
    <glyph glyph-name="parenright" unicode=")" horiz-adv-x="248" 
d="M63 -199l-46 34.998c35.333 68.667 61.666 134.167 78.999 196.5s26 132.5 26 210.5c0 78.667 -8.66699 149 -26 211s-43.666 127.667 -78.999 197l46 34c94 -129.333 141 -276.666 141 -441.999s-47 -312.666 -141 -441.999z" />
    <glyph glyph-name="asterisk" unicode="*" horiz-adv-x="340" 
d="M193 389h-46l6 115l-97 -62l-22 39l102 52l-102 52l22 40l97 -63l-6 115h46l-6 -115l96 63l23 -40l-102 -52l102 -52l-23 -39l-96 62z" />
    <glyph glyph-name="plus" unicode="+" horiz-adv-x="499" 
d="M470 311h-192v-213h-57v213h-192v52h192v207h57v-207h192v-52z" />
    <glyph glyph-name="comma" unicode="," horiz-adv-x="230" 
d="M176 24c0 -29.333 -7.5 -57.5029 -22.5 -84.5029s-34.5 -49.167 -58.5 -66.5l-38 31c16.667 10.667 31.167 24.834 43.5 42.501s19.5 34.5 21.5 50.5c-2.66699 -1.33301 -7.33398 -2 -14.001 -2c-13.333 0 -24.666 4.83301 -33.999 14.5s-14 21.834 -14 36.501
s5.16699 27.334 15.5 38.001s22.833 16 37.5 16c18 0 33 -6.83301 45 -20.5s18 -32.167 18 -55.5z" />
    <glyph glyph-name="hyphen" unicode="-" horiz-adv-x="300" 
d="M270 209h-240v66h240v-66z" />
    <glyph glyph-name="period" unicode="." horiz-adv-x="231" 
d="M115 -10c-15.333 0 -28.333 5.33301 -39 16s-16 23.667 -16 39s5.33301 28.333 16 39s23.667 16 39 16s28.333 -5.33301 39 -16s16 -23.667 16 -39s-5.33301 -28.333 -16 -39s-23.667 -16 -39 -16z" />
    <glyph glyph-name="slash" unicode="/" horiz-adv-x="296" 
d="M59 -20h-59l237 707h59z" />
    <glyph glyph-name="zero" unicode="0" horiz-adv-x="612" 
d="M306 -12c-44 0 -82.833 10.167 -116.5 30.5s-60.334 47.5 -80.001 81.5s-34.334 70.667 -44.001 110s-14.5 80.333 -14.5 123s4.83301 83.667 14.5 123s24.334 75.833 44.001 109.5s46.334 60.667 80.001 81s72.5 30.5 116.5 30.5c43.333 0 82 -10.167 116 -30.5
s60.833 -47.333 80.5 -81s34.334 -70.167 44.001 -109.5s14.5 -80.333 14.5 -123s-4.83301 -83.667 -14.5 -123s-24.334 -76 -44.001 -110s-46.5 -61.167 -80.5 -81.5s-72.667 -30.5 -116 -30.5zM306 62c40 0 73.333 13.833 100 41.5s45 60.834 55 99.501s15 82 15 130
s-5 91.333 -15 130s-28.333 71.667 -55 99s-60 41 -100 41s-73.333 -13.667 -100 -41s-45 -60.333 -55 -99s-15 -82 -15 -130s5 -91.333 15 -130s28.333 -71.834 55 -99.501s60 -41.5 100 -41.5z" />
    <glyph glyph-name="one" unicode="1" horiz-adv-x="339" 
d="M261 0h-83v558l-107 -114l-50 51l167 172h73v-667z" />
    <glyph glyph-name="two" unicode="2" horiz-adv-x="588" 
d="M512 0l-458.001 0.000976562v67c136.667 106.667 232.667 189 288 247s83 113.667 83 167c0 40 -13.833 70.333 -41.5 91s-60.5 31 -98.5 31c-76.667 0 -137 -28 -181 -84l-51 53c25.333 33.333 58.5 59.166 99.5 77.499s85.167 27.5 132.5 27.5
c60.667 0 113.167 -17 157.5 -51s66.5 -82.333 66.5 -145c0 -62 -26.667 -123.833 -80 -185.5s-134.666 -135.5 -243.999 -221.5h327v-74z" />
    <glyph glyph-name="three" unicode="3" horiz-adv-x="557" 
d="M266 -12c-53.333 0 -100.668 10.3369 -142.001 31.0039s-73 47 -95 79l49 52c20 -26.667 46.333 -48 79 -64s68.334 -24 107.001 -24c48 0 86 11.333 114 34s42 53 42 91c0 40 -14.833 69.667 -44.5 89s-70.167 29 -121.5 29c-39.333 0 -62.333 -0.333008 -69 -1v76
c7.33301 -0.666992 30.333 -1 69 -1c45.333 0 82.5 9.16699 111.5 27.5s43.5 45.833 43.5 82.5c0 35.333 -14.167 63.166 -42.5 83.499s-63.833 30.5 -106.5 30.5c-67.333 0 -126 -27 -176 -81l-46 52c56 68.667 132.333 103 229 103c66 0 120 -15.833 162 -47.5
s63 -74.834 63 -129.501c0 -44 -14.667 -79.333 -44 -106s-62.333 -43 -99 -49c36.667 -4 71.5 -20.333 104.5 -49s49.5 -67.334 49.5 -116.001c0 -56.667 -21.5 -102.834 -64.5 -138.501s-100.5 -53.5 -172.5 -53.5z" />
    <glyph glyph-name="four" unicode="4" horiz-adv-x="558" 
d="M432 0h-83v169h-317v69l286 429h114v-425h94v-73h-94v-169zM349 242v348l-234 -348h234z" />
    <glyph glyph-name="five" unicode="5" horiz-adv-x="590" 
d="M301 -12c-102.667 0 -181.001 35.668 -235.001 107.001l51 56c46 -59.333 107.333 -89 184 -89c45.333 0 82.333 13.667 111 41s43 61.333 43 102c0 43.333 -14.167 78.166 -42.5 104.499s-65.166 39.5 -110.499 39.5c-59.333 0 -110.666 -20.667 -153.999 -62l-61 21
v359h408v-74h-325v-232c41.333 40 93.333 60 156 60c59.333 0 109.666 -19 150.999 -57s62 -90 62 -156s-22.5 -119.167 -67.5 -159.5s-101.833 -60.5 -170.5 -60.5z" />
    <glyph glyph-name="six" unicode="6" horiz-adv-x="591" 
d="M309 -12c-45.333 0 -84.999 9.33203 -118.999 27.999s-60.833 44.334 -80.5 77.001s-34.334 69 -44.001 109s-14.5 83.667 -14.5 131c0 97.333 23.167 179 69.5 245s113.833 99 202.5 99c77.333 0 138.666 -26.667 183.999 -80l-42 -62c-38.667 45.333 -86 68 -142 68
c-41.333 0 -76.666 -13 -105.999 -39s-50.333 -58.167 -63 -96.5s-19 -80.5 -19 -126.5v-26c16.667 26.667 42.5 50.667 77.5 72s72.167 32 111.5 32c63.333 0 115.5 -18.5 156.5 -55.5s61.5 -89.5 61.5 -157.5c0 -60 -21.333 -111.333 -64 -154s-99 -64 -169 -64z
M305.001 61.999c48 0 85.501 14.665 112.501 43.998s40.5 61.666 40.5 96.999c0 46.667 -14.333 82.334 -43 107.001s-65.334 37 -110.001 37c-32.667 0 -64 -9.16699 -94 -27.5s-54.333 -42.166 -73 -71.499c4 -49.333 19.667 -92.666 47 -129.999s67.333 -56 120 -56z" />
    <glyph glyph-name="seven" unicode="7" horiz-adv-x="515" 
d="M213 0h-92l269 593h-359v74h455v-57z" />
    <glyph glyph-name="eight" unicode="8" horiz-adv-x="582" 
d="M291 -12c-68 0 -124.83 16.333 -170.497 49s-68.5 76.667 -68.5 132c0 42 15.167 78.333 45.5 109s68.166 52.667 113.499 66c-42.667 12 -78 31.5 -106 58.5s-42 60.833 -42 101.5c0 56 22.667 98.833 68 128.5s98.666 44.5 159.999 44.5s114.833 -14.833 160.5 -44.5
s68.5 -72.5 68.5 -128.5c0 -40.667 -14.167 -74.5 -42.5 -101.5s-63.833 -46.5 -106.5 -58.5c45.333 -13.333 83.166 -35.333 113.499 -66s45.5 -67 45.5 -109c0 -54.667 -22.833 -98.5 -68.5 -131.5s-102.5 -49.5 -170.5 -49.5zM291.003 378
c13.333 2 26.834 5.33301 40.501 10s29.167 11.167 46.5 19.5s31.333 20 42 35s16 31.833 16 50.5c0 33.333 -13.833 60 -41.5 80s-62.167 30 -103.5 30s-75.666 -9.83301 -102.999 -29.5s-41 -46.5 -41 -80.5c0 -18.667 5.33301 -35.5 16 -50.5s24.667 -26.667 42 -35
s32.666 -14.833 45.999 -19.5s26.666 -8 39.999 -10zM291.004 62c42.667 0 79.167 10.667 109.5 32s45.5 49.333 45.5 84c0 26.667 -10.5 50.167 -31.5 70.5s-42.333 34.666 -64 42.999s-41.5 13.5 -59.5 15.5c-18 -2 -37.833 -7.16699 -59.5 -15.5s-43 -22.666 -64 -42.999
s-31.5 -43.833 -31.5 -70.5c0 -34.667 15 -62.667 45 -84s66.667 -32 110 -32z" />
    <glyph glyph-name="nine" unicode="9" horiz-adv-x="591" 
d="M269 -11c-76 0 -137.669 26.668 -185.002 80.001l42 62c38.667 -45.333 86.334 -68 143.001 -68c42.667 0 78.667 13.333 108 40s50 59 62 97s18 79.667 18 125c0 11.333 -0.333008 20 -1 26c-16.667 -26.667 -42.334 -50.667 -77.001 -72s-71.667 -32 -111 -32
c-63.333 0 -115.666 18.5 -156.999 55.5s-62 89.5 -62 157.5c0 60 21.333 111.333 64 154s99.334 64 170.001 64c44.667 0 84 -9.33301 118 -28s61 -44.334 81 -77.001s34.833 -69 44.5 -109s14.5 -83.667 14.5 -131c0 -62.667 -9.33301 -119.167 -28 -169.5
s-49 -92 -91 -125s-93 -49.5 -153 -49.5zM286.998 319.001c32.667 0 64.167 9.16699 94.5 27.5s54.5 42.5 72.5 72.5c-2 22 -6.5 43.333 -13.5 64s-16.833 40.334 -29.5 59.001s-29.834 33.667 -51.501 45s-46.167 17 -73.5 17c-47.333 0 -84.666 -14.5 -111.999 -43.5
s-41 -61.5 -41 -97.5c0 -46.667 14.333 -82.334 43 -107.001s65.667 -37 111 -37z" />
    <glyph glyph-name="colon" unicode=":" horiz-adv-x="225" 
d="M115 380c-14.667 0 -27.5 5.5 -38.5 16.5s-16.5 23.833 -16.5 38.5c0 15.333 5.33301 28.333 16 39s23.667 16 39 16s28.333 -5.33301 39 -16s16 -23.667 16 -39c0 -14.667 -5.5 -27.5 -16.5 -38.5s-23.833 -16.5 -38.5 -16.5zM115 -10c-15.333 0 -28.333 5.33301 -39 16
s-16 23.667 -16 39s5.33301 28.333 16 39s23.667 16 39 16s28.333 -5.33301 39 -16s16 -23.667 16 -39s-5.33301 -28.333 -16 -39s-23.667 -16 -39 -16z" />
    <glyph glyph-name="semicolon" unicode=";" horiz-adv-x="230" 
d="M115 380c-14.667 0 -27.5 5.5 -38.5 16.5s-16.5 23.833 -16.5 38.5c0 15.333 5.33301 28.333 16 39s23.667 16 39 16s28.333 -5.33301 39 -16s16 -23.667 16 -39c0 -14.667 -5.5 -27.5 -16.5 -38.5s-23.833 -16.5 -38.5 -16.5zM176 26c0 -30 -7.5 -58.335 -22.5 -85.002
s-34.5 -48.667 -58.5 -66l-38 30c16 10.667 30.333 25 43 43s20 35 22 51c-2.66699 -1.33301 -7.33398 -2 -14.001 -2c-13.333 0 -24.666 4.83301 -33.999 14.5s-14 21.834 -14 36.501s5.16699 27.334 15.5 38.001s22.833 16 37.5 16c18 0 33 -6.83301 45 -20.5
s18 -32.167 18 -55.5z" />
    <glyph glyph-name="less" unicode="&#x3c;" horiz-adv-x="499" 
d="M470 90l-441 218v53l441 219v-63l-377 -183l377 -181v-63z" />
    <glyph glyph-name="equal" unicode="=" horiz-adv-x="499" 
d="M470 404h-441v53h441v-53zM470 211h-441v53h441v-53z" />
    <glyph glyph-name="greater" unicode="&#x3e;" horiz-adv-x="499" 
d="M470 308l-441 -218v63l377 181l-377 183v63l441 -219v-53z" />
    <glyph glyph-name="question" unicode="?" horiz-adv-x="462" 
d="M203 185c-25.333 21.333 -38.001 48.666 -38.001 81.999c0 23.333 6.16699 44.333 18.5 63s27.333 34.5 45 47.5l53 37.5c17.667 12 32.667 26 45 42s18.5 33.667 18.5 53c0 26.667 -10.167 48.834 -30.5 66.501s-49.166 26.5 -86.499 26.5
c-66 0 -119.333 -27.333 -160 -82l-50 54c52 68 124.333 102 217 102c59.333 0 106.833 -14.833 142.5 -44.5s53.5 -66.5 53.5 -110.5c0 -28 -6.66699 -53.167 -20 -75.5s-29.5 -40.5 -48.5 -54.5l-56.5 -40c-18.667 -12.667 -34.667 -26.667 -48 -42s-20 -32 -20 -50
c0 -20 8.66699 -36 26 -48zM223.999 -10c-14.667 0 -27.5 5.33301 -38.5 16s-16.5 23.667 -16.5 39s5.5 28.333 16.5 39s23.833 16 38.5 16s27.5 -5.33301 38.5 -16s16.5 -23.667 16.5 -39s-5.5 -28.333 -16.5 -39s-23.833 -16 -38.5 -16z" />
    <glyph glyph-name="at" unicode="@" horiz-adv-x="783" 
d="M352 -70c-90.667 0 -166.169 30.167 -226.502 90.5s-90.5 134.833 -90.5 223.5c0 106.667 39.833 199 119.5 277s172.167 117 277.5 117c92.667 0 168.334 -30.5 227.001 -91.5s88 -136.167 88 -225.5c0 -73.333 -17.333 -131 -52 -173s-75 -63 -121 -63
c-26.667 0 -48.167 7.83301 -64.5 23.5s-25.166 34.834 -26.499 57.501v7c-18 -26 -41.333 -47.167 -70 -63.5s-58.334 -24.5 -89.001 -24.5c-46 0 -83 15 -111 45s-42 69.333 -42 118c0 68 24 126.833 72 176.5s102.333 74.5 163 74.5c30.667 0 57.167 -7.33301 79.5 -22
s38.5 -33.334 48.5 -56.001l13 62h68l-57 -271c-1.33301 -8 -2 -15 -2 -21c0 -16 4.5 -28.667 13.5 -38s20.167 -14 33.5 -14c25.333 0 49.833 15 73.5 45s35.5 75.667 35.5 137c0 82.667 -26.167 150.5 -78.5 203.5s-120.5 79.5 -204.5 79.5
c-96 0 -179.833 -36.167 -251.5 -108.5s-107.5 -155.5 -107.5 -249.5c0 -80.667 27 -148 81 -202s122.333 -81 205 -81c64.667 0 126.667 18.667 186 56l18 -26c-65.333 -42 -134.666 -63 -207.999 -63zM344.998 141c57.333 0 106.669 30.001 148.002 90.001l29 139
c-6.66699 18.667 -18.834 35.5 -36.501 50.5s-39.834 22.5 -66.501 22.5c-48.667 0 -90.167 -19.333 -124.5 -58s-51.5 -83 -51.5 -133c0 -32.667 9 -59.334 27 -80.001s43 -31 75 -31z" />
    <glyph glyph-name="A" unicode="A" horiz-adv-x="658" 
d="M649 0h-95l-59 149h-332l-59 -149h-95l269 667h103zM471 222l-142 360l-141 -360h283z" />
    <glyph glyph-name="B" unicode="B" horiz-adv-x="629" 
d="M382 0l-303.999 0.000976562v667h297c57.333 0 102.833 -15.667 136.5 -47s50.5 -72.333 50.5 -123c0 -40 -11.333 -73.833 -34 -101.5s-50.334 -44.834 -83.001 -51.501c35.333 -5.33301 65.833 -24 91.5 -56s38.5 -68 38.5 -108c0 -54 -17.167 -97.5 -51.5 -130.5
s-81.5 -49.5 -141.5 -49.5zM361.001 378.001c36.667 0 65 10.001 85 30.001s30 45.667 30 77s-10.167 57.166 -30.5 77.499s-48.5 30.5 -84.5 30.5h-200v-215h200zM366.001 74.002c38.667 0 68.834 10.333 90.501 31s32.5 48.667 32.5 84c0 32 -10.833 59.167 -32.5 81.5
s-51.834 33.5 -90.501 33.5h-205v-230h205z" />
    <glyph glyph-name="C" unicode="C" horiz-adv-x="676" 
d="M394 -12c-97.333 0 -178.831 32.1689 -244.498 96.502s-98.5 147.166 -98.5 248.499s32.833 184.166 98.5 248.499s147.167 96.5 244.5 96.5c107.333 0 191.666 -44 252.999 -132l-69 -39c-19.333 29.333 -45.5 52.833 -78.5 70.5s-68.167 26.5 -105.5 26.5
c-74 0 -135.333 -25.333 -184 -76s-73 -115.667 -73 -195c0 -78.667 24.5 -143.5 73.5 -194.5s110.167 -76.5 183.5 -76.5c37.333 0 72.5 9 105.5 27s59.167 41.333 78.5 70l70 -38c-64.667 -88.667 -149.334 -133 -254.001 -133z" />
    <glyph glyph-name="D" unicode="D" horiz-adv-x="700" 
d="M306 0l-227.999 0.000976562v667h228c102 0 184.5 -31.667 247.5 -95s94.5 -143 94.5 -239c0 -96.667 -31.333 -176.334 -94 -239.001s-145.334 -94 -248.001 -94zM306.001 74.001c78.667 0 141 24.667 187 74s69 111 69 185c0 74.667 -22.667 136.667 -68 186
s-108 74 -188 74h-145v-519h145z" />
    <glyph glyph-name="E" unicode="E" horiz-adv-x="569" 
d="M515 0h-437v667h437v-74h-354v-215h347v-74h-347v-230h354v-74z" />
    <glyph glyph-name="F" unicode="F" horiz-adv-x="551" 
d="M161 0h-83v667h437v-74h-354v-215h347v-74h-347v-304z" />
    <glyph glyph-name="G" unicode="G" horiz-adv-x="713" 
d="M388 -13c-94 0 -173.668 32.333 -239.001 97s-98 147.667 -98 249c0 102 32.833 185 98.5 249s147.167 96 244.5 96c106 0 192.333 -41.333 259 -124l-66 -42c-21.333 28 -49.166 50.333 -83.499 67s-70.833 25 -109.5 25c-74 0 -135.333 -25.333 -184 -76
s-73 -115.667 -73 -195c0 -78.667 24.5 -143.5 73.5 -194.5s110.167 -76.5 183.5 -76.5c64.667 0 116 19.5 154 58.5s61.333 88.5 70 148.5h-274v74h364c0 -106.667 -28.167 -192.667 -84.5 -258s-134.833 -98 -235.5 -98z" />
    <glyph glyph-name="H" unicode="H" horiz-adv-x="712" 
d="M634 0h-83v306h-390v-306h-83v667h83v-287h390v287h83v-667z" />
    <glyph glyph-name="I" unicode="I" horiz-adv-x="239" 
d="M161 0h-83v667h83v-667z" />
    <glyph glyph-name="J" unicode="J" horiz-adv-x="475" 
d="M185 -12c-72 0 -130 25.666 -174 76.999l44 63c35.333 -44 77 -66 125 -66c40.667 0 73.167 12.833 97.5 38.5s36.5 59.5 36.5 101.5v465h83v-466c0 -69.333 -19.667 -122.166 -59 -158.499s-90.333 -54.5 -153 -54.5z" />
    <glyph glyph-name="K" unicode="K" horiz-adv-x="601" 
d="M585 0h-104l-253 300l-67 -76v-224h-83v667h83v-344l295 344h104l-278 -316z" />
    <glyph glyph-name="L" unicode="L" horiz-adv-x="493" 
d="M460 0h-393v667h83v-593h310v-74z" />
    <glyph glyph-name="M" unicode="M" horiz-adv-x="809" 
d="M731 0h-83v561l-226 -561h-34l-227 561v-561h-83v667h119l208 -514l207 514h119v-667z" />
    <glyph glyph-name="N" unicode="N" horiz-adv-x="708" 
d="M630 0h-80l-389 532v-532h-83v667h85l384 -521v521h83v-667z" />
    <glyph glyph-name="O" unicode="O" horiz-adv-x="765" 
d="M382 -12c-97.333 0 -176.833 32.667 -238.5 98s-92.5 147.666 -92.5 246.999s30.833 181.666 92.5 246.999s141.167 98 238.5 98s177 -32.667 239 -98s93 -147.666 93 -246.999s-31 -181.666 -93 -246.999s-141.667 -98 -239 -98zM382 62
c73.333 0 132.666 25.5 177.999 76.5s68 115.833 68 194.5s-22.667 143.5 -68 194.5s-104.666 76.5 -177.999 76.5c-74 0 -133.333 -25.333 -178 -76s-67 -115.667 -67 -195c0 -78.667 22.333 -143.5 67 -194.5s104 -76.5 178 -76.5z" />
    <glyph glyph-name="P" unicode="P" horiz-adv-x="587" 
d="M161 0l-83 0.00195312v667h268c64.667 0 115.667 -19.333 153 -58s56 -86.334 56 -143.001s-18.833 -104.334 -56.5 -143.001s-88.5 -58 -152.5 -58h-185v-265zM336 339.002c39.333 0 71.333 11.833 96 35.5s37 54.167 37 91.5s-12.333 67.833 -37 91.5
s-56.667 35.5 -96 35.5h-175v-254h175z" />
    <glyph glyph-name="Q" unicode="Q" horiz-adv-x="765" 
d="M382 -12c-97.333 0 -176.833 32.667 -238.5 98s-92.5 147.666 -92.5 246.999s30.833 181.666 92.5 246.999s141.167 98 238.5 98s177 -32.667 239 -98s93 -147.666 93 -246.999s-30.667 -181.666 -92 -246.999l63 -67l-57 -50l-65 69c-52 -33.333 -112.333 -50 -181 -50z
M382 62c47.333 0 89.666 11.333 126.999 34l-95 103l58 49l94 -102c41.333 50.667 62 113 62 187c0 78.667 -22.667 143.5 -68 194.5s-104.666 76.5 -177.999 76.5c-74 0 -133.333 -25.333 -178 -76s-67 -115.667 -67 -195c0 -78.667 22.333 -143.5 67 -194.5
s104 -76.5 178 -76.5z" />
    <glyph glyph-name="R" unicode="R" horiz-adv-x="609" 
d="M562 0l-97.999 0.000976562l-169 265h-134v-265h-83v667h268c62 0 112.5 -18.333 151.5 -55s58.5 -85.334 58.5 -146.001c0 -57.333 -16.833 -103 -50.5 -137s-74.834 -53 -123.501 -57zM336.001 338.001c39.333 0 71.5 12 96.5 36s37.5 54.667 37.5 92
c0 38 -12.5 68.667 -37.5 92s-57.167 35 -96.5 35h-175v-255h175z" />
    <glyph glyph-name="S" unicode="S" horiz-adv-x="586" 
d="M294 -12c-108 0 -193.335 35.3271 -256.002 105.994l50 64c55.333 -64 125 -96 209 -96c54 0 93.667 11.667 119 35s38 50.333 38 81c0 31.333 -13.5 56.333 -40.5 75s-60 32.834 -99 42.501s-77.833 20.334 -116.5 32.001s-71.5 31 -98.5 58s-40.5 62.5 -40.5 106.5
c0 54.667 21.667 99.334 65 134.001s98.333 52 165 52c98 0 176.667 -31.333 236 -94l-50 -61c-47.333 53.333 -111.666 80 -192.999 80c-40 0 -72.833 -9.83301 -98.5 -29.5s-38.5 -45.167 -38.5 -76.5c0 -23.333 9.83301 -42.666 29.5 -57.999s44 -26.666 73 -33.999
s60.667 -16.5 95 -27.5s66 -22.667 95 -35s53.333 -32.166 73 -59.499s29.5 -60.333 29.5 -99c0 -54 -20.167 -100.167 -60.5 -138.5s-102.166 -57.5 -185.499 -57.5z" />
    <glyph glyph-name="T" unicode="T" horiz-adv-x="570" 
d="M326 0h-83v593h-211v74h506v-74h-212v-593z" />
    <glyph glyph-name="U" unicode="U" horiz-adv-x="701" 
d="M350 -12c-88 0 -155.333 24.167 -202 72.5s-70 114.5 -70 198.5v408h84v-406c0 -62 16.167 -110.667 48.5 -146s78.833 -53 139.5 -53s107.334 17.667 140.001 53s49 84 49 146v406h84v-407c0 -84.667 -23.333 -151.167 -70 -199.5s-114.334 -72.5 -203.001 -72.5z" />
    <glyph glyph-name="V" unicode="V" horiz-adv-x="658" 
d="M381 0h-103l-269 667h95l225 -576l225 576h95z" />
    <glyph glyph-name="W" unicode="W" horiz-adv-x="883" 
d="M678 0h-90l-147 538l-147 -538h-90l-190 667h92l148 -556l153 556h69l153 -556l147 556h93z" />
    <glyph glyph-name="X" unicode="X" horiz-adv-x="652" 
d="M640 0h-101l-213 284l-213 -284h-101l260 342l-245 325h101l198 -266l197 266h102l-245 -324z" />
    <glyph glyph-name="Y" unicode="Y" horiz-adv-x="626" 
d="M355 0h-83v282l-263 385h97l207 -310l207 310h97l-262 -385v-282z" />
    <glyph glyph-name="Z" unicode="Z" horiz-adv-x="585" 
d="M537 0h-489v69l375 524h-375v74h482v-69l-376 -524h383v-74z" />
    <glyph glyph-name="bracketleft" unicode="[" horiz-adv-x="243" 
d="M226 -190h-186v868h186v-55h-127v-758h127v-55z" />
    <glyph glyph-name="backslash" unicode="\" horiz-adv-x="296" 
d="M237 -20l-237 707h59l237 -707h-59z" />
    <glyph glyph-name="bracketright" unicode="]" horiz-adv-x="243" 
d="M204 -190h-187v55h128v758h-128v55h187v-868z" />
    <glyph glyph-name="asciicircum" unicode="^" horiz-adv-x="432" 
d="M413 333h-62l-135 279l-135 -279h-62l169 334h57z" />
    <glyph glyph-name="underscore" unicode="_" horiz-adv-x="564" 
d="M567 -95h-570v55h570v-55z" />
    <glyph glyph-name="grave" unicode="`" horiz-adv-x="226" 
d="M226 556h-57l-169 144h78z" />
    <glyph glyph-name="a" unicode="a" horiz-adv-x="575" 
d="M500 0h-75.001v72c-41.333 -56 -95.666 -84 -162.999 -84c-64 0 -115.833 22.833 -155.5 68.5s-59.5 107.167 -59.5 184.5c0 76.667 20 138.167 60 184.5s91.667 69.5 155 69.5c66.667 0 121 -28.333 163 -85v73h75v-483zM280.999 55c28.667 0 56.5 7.50098 83.5 22.501
s47.167 33.167 60.5 54.5v218c-13.333 22 -33.5 40.5 -60.5 55.5s-54.833 22.5 -83.5 22.5c-48 0 -86 -17.5 -114 -52.5s-42 -79.833 -42 -134.5s14 -99.334 42 -134.001s66 -52 114 -52z" />
    <glyph glyph-name="b" unicode="b" horiz-adv-x="575" 
d="M150 131c13.333 -21.333 33.5 -39.334 60.5 -54.001s55.167 -22 84.5 -22c47.333 0 85 17.333 113 52s42 79.334 42 134.001s-14 99.5 -42 134.5s-65.667 52.5 -113 52.5c-29.333 0 -57.5 -7.5 -84.5 -22.5s-47.167 -33.5 -60.5 -55.5v-219zM150 -0.000976562h-75.001
v667h75v-257c42 56.667 96.333 85 163 85c64 0 115.833 -23.167 155.5 -69.5s59.5 -107.833 59.5 -184.5c0 -77.333 -19.833 -138.833 -59.5 -184.5s-91.5 -68.5 -155.5 -68.5c-67.333 0 -121.666 28 -162.999 84v-72z" />
    <glyph glyph-name="c" unicode="c" horiz-adv-x="496" 
d="M288 -12c-71.333 0 -129.333 24.167 -174 72.5s-67 108.833 -67 181.5s22.333 133 67 181s102.667 72 174 72c74.667 0 133.667 -28 177 -84l-50 -45c-30 41.333 -71 62 -123 62c-50 0 -90.333 -17.5 -121 -52.5s-46 -79.5 -46 -133.5c0 -54.667 15.333 -99.5 46 -134.5
s71 -52.5 121 -52.5c50.667 0 91.667 21 123 63l50 -46c-43.333 -56 -102.333 -84 -177 -84z" />
    <glyph glyph-name="d" unicode="d" horiz-adv-x="575" 
d="M500 0h-75.001v72c-41.333 -56 -95.666 -84 -162.999 -84c-64 0 -115.833 22.833 -155.5 68.5s-59.5 107.167 -59.5 184.5c0 76.667 20 138.167 60 184.5s91.667 69.5 155 69.5c66.667 0 121 -28.333 163 -85v257h75v-667zM280.999 55c28.667 0 56.5 7.50098 83.5 22.501
s47.167 33.167 60.5 54.5v218c-13.333 22 -33.5 40.5 -60.5 55.5s-54.833 22.5 -83.5 22.5c-48 0 -86 -17.5 -114 -52.5s-42 -79.833 -42 -134.5s14 -99.334 42 -134.001s66 -52 114 -52z" />
    <glyph glyph-name="e" unicode="e" horiz-adv-x="563" 
d="M294 -12c-72.667 0 -132 23.5 -178 70.5s-69 108.167 -69 183.5c0 70.667 22.667 130.5 68 179.5s102 73.5 170 73.5c71.333 0 127.833 -24.5 169.5 -73.5s62.5 -110.833 62.5 -185.5v-19h-390c3.33301 -47.333 20.5 -87 51.5 -119s71.5 -48 121.5 -48
c60 0 110 20.667 150 62l36 -49c-51.333 -50 -115.333 -75 -192 -75zM443 273c-0.666992 40.667 -14.667 77.5 -42 110.5s-66.333 49.5 -117 49.5c-48 0 -85.833 -16.333 -113.5 -49s-42.5 -69.667 -44.5 -111h317z" />
    <glyph glyph-name="f" unicode="f" horiz-adv-x="284" 
d="M171 0h-75v417h-80v66h80v37c0 49.333 12.833 87.833 38.5 115.5s59.5 41.5 101.5 41.5c30 0 54.667 -5.33301 74 -16l-19 -57c-12.667 7.33301 -27 11 -43 11c-51.333 0 -77 -31.667 -77 -95v-37h98v-66h-98v-417z" />
    <glyph glyph-name="g" unicode="g" horiz-adv-x="575" 
d="M269 -196c-42 0 -77.9971 5.33301 -107.997 16s-59 29.667 -87 57l38 54c36.667 -43.333 89 -65 157 -65c44 0 81 11.5 111 34.5s45 58.5 45 106.5v73c-18.667 -26 -42.334 -46.833 -71.001 -62.5s-59.334 -23.5 -92.001 -23.5c-64 0 -115.833 22.5 -155.5 67.5
s-59.5 105.833 -59.5 182.5s19.833 137.667 59.5 183s91.5 68 155.5 68c66.667 0 121 -28.333 163 -85v73h75v-476c0 -70.667 -21.833 -122.167 -65.5 -154.5s-98.834 -48.5 -165.501 -48.5zM281.003 61c28.667 0 56.334 7.5 83.001 22.5s47 33.5 61 55.5v212
c-14 21.333 -34.333 39.5 -61 54.5s-54.334 22.5 -83.001 22.5c-48 0 -86 -17 -114 -51s-42 -78.333 -42 -133c0 -54 14 -98 42 -132s66 -51 114 -51z" />
    <glyph glyph-name="h" unicode="h" horiz-adv-x="552" 
d="M477 0l-75.001 0.000976562v318c0 40.667 -9.33301 69.167 -28 85.5s-45.667 24.5 -81 24.5c-27.333 0 -54.166 -7.33301 -80.499 -22s-46.833 -32.334 -61.5 -53.001v-353h-75v667h75v-254c18 22.667 42.667 42 74 58s64 24 98 24c102.667 0 154 -51.333 154 -154v-341z
" />
    <glyph glyph-name="i" unicode="i" horiz-adv-x="225" 
d="M113 552c-14 0 -26 4.83301 -36 14.5s-15 21.5 -15 35.5s5 26 15 36s22 15 36 15s25.833 -5 35.5 -15s14.5 -22 14.5 -36s-4.83301 -25.833 -14.5 -35.5s-21.5 -14.5 -35.5 -14.5zM150 0h-75v483h75v-483z" />
    <glyph glyph-name="j" unicode="j" horiz-adv-x="225" 
d="M113 552c-14 0 -26 4.83301 -36 14.5s-15 21.5 -15 35.5s5 26 15 36s22 15 36 15s25.833 -5 35.5 -15s14.5 -22 14.5 -36s-4.83301 -25.833 -14.5 -35.5s-21.5 -14.5 -35.5 -14.5zM7 -196c-40 0 -75 12.001 -105 36.001l26 56c20 -20 43 -30 69 -30
c24 0 43 7.16699 57 21.5s21 36.166 21 65.499v530h75v-530c0 -48 -12.333 -84.833 -37 -110.5s-60 -38.5 -106 -38.5z" />
    <glyph glyph-name="k" unicode="k" horiz-adv-x="514" 
d="M500 0h-96l-173 217l-81 -79v-138h-75v667h75v-441l254 257h95l-214 -219z" />
    <glyph glyph-name="l" unicode="l" horiz-adv-x="269" 
d="M182 -12c-35.333 0 -62 9.66699 -80 29s-27 47.333 -27 84v566h75v-550c0 -18.667 4.16699 -33.667 12.5 -45s20.5 -17 36.5 -17c22 0 38.667 7 50 21l23 -57c-22.667 -20.667 -52.667 -31 -90 -31z" />
    <glyph glyph-name="m" unicode="m" horiz-adv-x="808" 
d="M733 0l-75.002 0.00195312v328c0 66.667 -29.667 100 -89 100c-24 0 -48 -7.16699 -72 -21.5s-42.667 -31.833 -56 -52.5v-354h-75v328c0 66.667 -29.667 100 -89 100c-23.333 0 -46.833 -7.33301 -70.5 -22s-42.5 -32.334 -56.5 -53.001v-353h-75v483h75v-70
c12.667 19.333 33.834 37.833 63.501 55.5s60.834 26.5 93.501 26.5c34.667 0 63 -8.33301 85 -25s36.667 -38.334 44 -65.001c14.667 24 37 45 67 63s61.667 27 95 27c90 0 135 -48.667 135 -146v-349z" />
    <glyph glyph-name="n" unicode="n" horiz-adv-x="552" 
d="M476 0l-74 0.000976562v316c0 40.667 -9.33301 69.5 -28 86.5s-45.667 25.5 -81 25.5c-28 0 -55 -7.33301 -81 -22s-46.667 -32.334 -62 -53.001v-353h-75v483h75v-70c18.667 22.667 43.667 42 75 58s64 24 98 24c102 0 153 -52 153 -156v-339z" />
    <glyph glyph-name="o" unicode="o" 
d="M286 -12c-72 0 -129.833 24.333 -173.5 73s-65.5 109 -65.5 181s21.833 132.167 65.5 180.5s101.5 72.5 173.5 72.5s129.833 -24.167 173.5 -72.5s65.5 -108.5 65.5 -180.5s-21.833 -132.333 -65.5 -181s-101.5 -73 -173.5 -73zM286 55c49.333 0 88.333 18.167 117 54.5
s43 80.5 43 132.5s-14.333 96 -43 132s-67.667 54 -117 54s-88.333 -18 -117 -54s-43 -80 -43 -132s14.333 -96.167 43 -132.5s67.667 -54.5 117 -54.5z" />
    <glyph glyph-name="p" unicode="p" 
d="M313 -12c-66 0 -120.333 28.334 -163 85.001v-257h-75v667h75v-72c18 25.333 41.333 45.666 70 60.999s59.667 23 93 23c64 0 115.833 -22.833 155.5 -68.5s59.5 -107.167 59.5 -184.5s-19.833 -139 -59.5 -185s-91.5 -69 -155.5 -69zM294 55.001
c47.333 0 85 17.499 113 52.499s42 79.833 42 134.5s-14 99.334 -42 134.001s-65.667 52 -113 52c-28.667 0 -56.5 -7.5 -83.5 -22.5s-47.167 -33.167 -60.5 -54.5v-218c13.333 -22 33.5 -40.5 60.5 -55.5s54.833 -22.5 83.5 -22.5z" />
    <glyph glyph-name="q" unicode="q" 
d="M278 55c28.667 0 56.5 7.50098 83.5 22.501s47.167 33.5 60.5 55.5v218c-13.333 21.333 -33.5 39.5 -60.5 54.5s-54.833 22.5 -83.5 22.5c-47.333 0 -85 -17.333 -113 -52s-42 -79.334 -42 -134.001s14 -99.5 42 -134.5s65.667 -52.5 113 -52.5zM259 -11.999
c-64 0 -115.833 22.999 -155.5 68.999s-59.5 107.667 -59.5 185s19.833 138.833 59.5 184.5s91.5 68.5 155.5 68.5c33.333 0 64.333 -7.66699 93 -23s52 -35.666 70 -60.999v72h75v-667h-75v257c-42.667 -56.667 -97 -85 -163 -85z" />
    <glyph glyph-name="r" unicode="r" horiz-adv-x="330" 
d="M150 0h-75v483h75v-77c46 58.667 99.667 88 161 88v-77c-12 1.33301 -21.667 2 -29 2c-23.333 0 -48.333 -7.83301 -75 -23.5s-45.667 -33.5 -57 -53.5v-342z" />
    <glyph glyph-name="s" unicode="s" horiz-adv-x="465" 
d="M229 -12c-81.333 0 -146.333 25.3369 -195 76.0039l38 54c16.667 -19.333 39.5 -35.666 68.5 -48.999s59.167 -20 90.5 -20c36 0 64.167 7.66699 84.5 23s30.5 35.333 30.5 60c0 21.333 -10.333 38.166 -31 50.499s-45.667 21.666 -75 27.999s-58.5 13.666 -87.5 21.999
s-53.833 22.666 -74.5 42.999s-31 47.166 -31 80.499c0 39.333 16 72.333 48 99s75.667 40 131 40c74 0 133.667 -23.333 179 -70l-35 -52c-34 40.667 -82 61 -144 61c-32.667 0 -58.667 -7.16699 -78 -21.5s-29 -32.5 -29 -54.5c0 -16 7.33301 -29.333 22 -40
s33.167 -18.334 55.5 -23.001s46.333 -10.667 72 -18s49.667 -15.5 72 -24.5s40.833 -23.667 55.5 -44s22 -45.166 22 -74.499c0 -42.667 -16.5 -77.667 -49.5 -105s-79.5 -41 -139.5 -41z" />
    <glyph glyph-name="t" unicode="t" horiz-adv-x="294" 
d="M198 -12c-72 0 -107.999 37.667 -107.999 113v316h-80v66h80v132h76v-132h98v-66h-98v-300c0 -18.667 4.16699 -33.667 12.5 -45s20.166 -17 35.499 -17c21.333 0 38.333 7 51 21l22 -57c-22 -20.667 -51.667 -31 -89 -31z" />
    <glyph glyph-name="u" unicode="u" horiz-adv-x="551" 
d="M476 0h-75v68c-20 -22.667 -45.167 -41.667 -75.5 -57s-62.5 -23 -96.5 -23c-102.667 0 -154 51.333 -154 154v341h75v-318c0 -40 9.33301 -68.333 28 -85s45.667 -25 81 -25c28 0 55 7 81 21s46.333 31.333 61 52v355h75v-483z" />
    <glyph glyph-name="v" unicode="v" horiz-adv-x="490" 
d="M286 0h-82l-201 483h82l160 -396l161 396h81z" />
    <glyph glyph-name="w" unicode="w" horiz-adv-x="734" 
d="M569 0h-76l-126 388l-126 -388h-75l-154 483h78l118 -385l127 385h65l126 -385l118 385h79z" />
    <glyph glyph-name="x" unicode="x" horiz-adv-x="487" 
d="M475 0h-86l-146 198l-145 -198h-86l185 248l-175 235h87l134 -184l135 184h86l-175 -235z" />
    <glyph glyph-name="y" unicode="y" horiz-adv-x="551" 
d="M255 -196c-74.667 0 -136.332 24.334 -184.999 73.001l38 54c34.667 -43.333 83.667 -65 147 -65c45.333 0 81 12.333 107 37s39 59 39 103v72c-20 -22.667 -45.167 -41.667 -75.5 -57s-62.5 -23 -96.5 -23c-102.667 0 -154 51.333 -154 154v331h75v-308
c0 -40.667 9.33301 -69.334 28 -86.001s45.667 -25 81 -25c27.333 0 54.166 7.16699 80.499 21.5s46.833 31.5 61.5 51.5v346h75v-477c0 -65.333 -21 -115.333 -63 -150s-94.667 -52 -158 -52z" />
    <glyph glyph-name="z" unicode="z" horiz-adv-x="472" 
d="M420 0h-368v59l266 358h-266v66h364v-57l-268 -360h272v-66z" />
    <glyph glyph-name="braceleft" unicode="{" horiz-adv-x="261" 
d="M244 -190h-62c-33.333 0 -62.333 12.5 -87 37.5s-37 57.167 -37 96.5v206c0 20 -4.5 36.5 -13.5 49.5s-22.167 19.5 -39.5 19.5v50c17.333 0 30.5 6.5 39.5 19.5s13.5 29.5 13.5 49.5v205c0 40 12.333 72.5 37 97.5s53.667 37.5 87 37.5h62v-55h-62
c-18 0 -33.5 -7.5 -46.5 -22.5s-19.5 -33.833 -19.5 -56.5v-212c0 -46 -15 -75.333 -45 -88c30 -12.667 45 -42 45 -88v-211c0 -22.667 6.5 -41.667 19.5 -57s28.5 -23 46.5 -23h62v-55z" />
    <glyph glyph-name="bar" unicode="|" horiz-adv-x="211" 
d="M133 -20h-55v707h55v-707z" />
    <glyph glyph-name="braceright" unicode="}" horiz-adv-x="261" 
d="M17 -190v55h61c18 0 33.667 7.66699 47 23s20 34.333 20 57v211c0 46 15 75.333 45 88c-30 12.667 -45 42 -45 88v212c0 22.667 -6.5 41.5 -19.5 56.5s-28.833 22.5 -47.5 22.5h-61v55h61c33.333 0 62.5 -12.5 87.5 -37.5s37.5 -57.5 37.5 -97.5v-205
c0 -20 4.5 -36.5 13.5 -49.5s21.833 -19.5 38.5 -19.5v-50c-16.667 0 -29.5 -6.5 -38.5 -19.5s-13.5 -29.5 -13.5 -49.5v-206c0 -39.333 -12.5 -71.5 -37.5 -96.5s-54.167 -37.5 -87.5 -37.5h-61z" />
    <glyph glyph-name="asciitilde" unicode="~" horiz-adv-x="503" 
d="M420 667l55.002 -6.00195c-3.33301 -34 -7.5 -63.667 -12.5 -89s-12.5 -50.166 -22.5 -74.499s-23.5 -42.833 -40.5 -55.5s-37.5 -19 -61.5 -19c-23.333 0 -42.833 6.5 -58.5 19.5s-27.334 28.833 -35.001 47.5s-14.667 37.334 -21 56.001s-14.166 34.5 -23.499 47.5
s-21 19.5 -35 19.5c-42 0 -69.333 -63.667 -82 -191l-56 7c3.33301 33.333 7.66602 62.833 12.999 88.5s13 50.5 23 74.5s23.667 42.333 41 55s37.666 19 60.999 19s42.833 -6.5 58.5 -19.5s27.334 -29 35.001 -48s14.667 -37.833 21 -56.5s14.166 -34.5 23.499 -47.5
s21 -19.5 35 -19.5c42 0 69.333 64 82 192z" />
    <glyph glyph-name="uni00A0" unicode="&#xa0;" horiz-adv-x="259" 
 />
    <glyph glyph-name="exclamdown" unicode="&#xa1;" horiz-adv-x="230" 
d="M68 -184l15 480h63l16 -480h-94zM60 438c0 14.667 5.33301 27.5 16 38.5s23.667 16.5 39 16.5c14.667 0 27.334 -5.33301 38.001 -16s16 -23.667 16 -39c0 -14.667 -5.33301 -27.334 -16 -38.001s-23.334 -16 -38.001 -16s-27.5 5.33301 -38.5 16
s-16.5 23.334 -16.5 38.001z" />
    <glyph glyph-name="cent" unicode="&#xa2;" horiz-adv-x="496" 
d="M252 -100l0.000976562 91.001c-61.333 8 -110.833 35.333 -148.5 82s-56.5 103 -56.5 169c0 65.333 18.833 121.166 56.5 167.499s87.167 73.833 148.5 82.5v73h59v-71c62.667 -5.33301 114 -33 154 -83l-50 -45c-26.667 36.667 -61.334 57 -104.001 61v-371
c42 4 76.667 24.667 104 62l50 -46c-38.667 -50 -90 -77.667 -154 -83v-89h-59zM125.001 242.001c0 -46.667 11.333 -86.667 34 -120s53.667 -54.333 93 -63v365c-39.333 -8.66699 -70.333 -29.5 -93 -62.5s-34 -72.833 -34 -119.5z" />
    <glyph glyph-name="sterling" unicode="&#xa3;" horiz-adv-x="518" 
d="M20 268l-0.000976562 53.9941h105c-18.667 21.333 -31.5 36.5 -38.5 45.5s-15.167 24.333 -24.5 46s-14 43.834 -14 66.501c0 54.667 22 101.167 66 139.5s96.667 57.5 158 57.5c45.333 0 85.666 -9.83301 120.999 -29.5s62.333 -47.167 81 -82.5l-67 -40
c-8.66699 22.667 -24.667 42 -48 58s-49.666 24 -78.999 24c-39.333 0 -72.833 -11.667 -100.5 -35s-41.5 -54.333 -41.5 -93c0 -17.333 3 -34.166 9 -50.499s11.667 -28.666 17 -36.999s14.666 -20.666 27.999 -36.999s22 -27.166 26 -32.499h150v-54h-122
c4.66699 -15.333 7 -29.666 7 -42.999c0 -52 -25.333 -96 -76 -132c18 6 35.333 9 52 9c22 0 47.667 -6.83301 77 -20.5s53 -20.5 71 -20.5c20.667 0 39.834 4.16699 57.501 12.5s30.167 17.5 37.5 27.5l36 -67c-32.667 -31.333 -77.667 -47 -135 -47
c-31.333 0 -63 7.66699 -95 23s-60 23 -84 23c-28 0 -67.333 -13.333 -118 -40l-29 63c42.667 18.667 75.334 41.167 98.001 67.5s34 54.5 34 84.5c0 20 -5 40 -15 60h-144z" />
    <glyph glyph-name="yen" unicode="&#xa5;" horiz-adv-x="626" 
d="M355 0h-83v122h-250v53h250v107h-250v52h214l-227 333h97l207 -310l207 310h97l-227 -333h215v-52h-250v-107h250v-53h-250v-122z" />
    <glyph glyph-name="brokenbar" unicode="&#xa6;" horiz-adv-x="211" 
d="M133 -20h-55v316h55v-316zM133 371h-55v316h55v-316z" />
    <glyph glyph-name="section" unicode="&#xa7;" horiz-adv-x="468" 
d="M418 315c0 -58.667 -30.667 -101.002 -92 -127.002c61.333 -24 92 -64.667 92 -122c0 -46 -17.333 -82 -52 -108s-80.334 -39 -137.001 -39c-76.667 0 -141.667 26 -195 78l38 49c39.333 -47.333 91.666 -71 156.999 -71c34.667 0 62.834 7.66699 84.501 23
s32.5 36.333 32.5 63c0 22.667 -10.333 40.5 -31 53.5s-45.667 23 -75 30s-58.5 14.833 -87.5 23.5s-53.833 23.167 -74.5 43.5s-31 46.833 -31 79.5s10.833 59.834 32.5 81.501s48.834 36.834 81.501 45.501c-76 24 -114 65.333 -114 124c0 38 16.167 70 48.5 96
s75.833 39 130.5 39c77.333 0 137 -23.667 179 -71l-35 -45c-33.333 40 -80.333 60 -141 60c-32.667 0 -59.167 -7.33301 -79.5 -22s-30.5 -34 -30.5 -58c0 -17.333 7.33301 -31.5 22 -42.5s33.167 -19 55.5 -24s46.333 -11.167 72 -18.5s49.667 -15.333 72 -24
s40.833 -23 55.5 -43s22 -44.667 22 -74zM344 305.998c0 25.333 -10.168 44.665 -30.501 57.998s-47.833 24.333 -82.5 33c-41.333 -10.667 -70.333 -24 -87 -40s-25 -35.667 -25 -59c0 -17.333 7.33301 -32.166 22 -44.499s28.5 -20.666 41.5 -24.999
s35.5 -10.5 67.5 -18.5c4.66699 -1.33301 8.33398 -2.33301 11.001 -3c55.333 24 83 57 83 99z" />
    <glyph glyph-name="dieresis" unicode="&#xa8;" horiz-adv-x="272" 
d="M286 604c0 -12.667 -4.66699 -23.5 -14 -32.5s-20.333 -13.5 -33 -13.5s-23.5 4.5 -32.5 13.5s-13.5 19.833 -13.5 32.5s4.5 23.5 13.5 32.5s19.833 13.5 32.5 13.5c13.333 0 24.5 -4.5 33.5 -13.5s13.5 -19.833 13.5 -32.5zM79 604c0 -12.667 -4.5 -23.5 -13.5 -32.5
s-19.833 -13.5 -32.5 -13.5s-23.667 4.5 -33 13.5s-14 19.833 -14 32.5s4.5 23.5 13.5 32.5s20.167 13.5 33.5 13.5c12.667 0 23.5 -4.5 32.5 -13.5s13.5 -19.833 13.5 -32.5z" />
    <glyph glyph-name="copyright" unicode="&#xa9;" horiz-adv-x="778" 
d="M734 334c0 -95.333 -33.667 -176.668 -101 -244.001s-148.666 -101 -243.999 -101s-176.666 33.833 -243.999 101.5s-101 148.834 -101 243.501c0 95.333 33.667 176.666 101 243.999s148.666 101 243.999 101s176.666 -33.667 243.999 -101s101 -148.666 101 -243.999z
M703 333.998c0 86.667 -30.667 160.667 -92 222s-135.333 92 -222 92c-86 0 -159.833 -30.667 -221.5 -92s-92.5 -135.333 -92.5 -222c0 -86 30.833 -159.833 92.5 -221.5s135.5 -92.5 221.5 -92.5c86.667 0 160.667 30.833 222 92.5s92 135.5 92 221.5zM512 211.998
l25.999 -24.998c-38 -44 -87 -66 -147 -66c-58 0 -107.167 20.667 -147.5 62s-60.5 92.333 -60.5 153s20.167 111.167 60.5 151.5s89.5 60.5 147.5 60.5c60.667 0 109.334 -21.667 146.001 -65l-25 -25c-12.667 17.333 -30.167 31.166 -52.5 41.499
s-45.166 15.5 -68.499 15.5c-46.667 0 -86.834 -16.833 -120.501 -50.5s-50.5 -76.834 -50.5 -129.501c0 -51.333 17 -94.333 51 -129s74 -52 120 -52c24 0 46.833 5.33301 68.5 16s39.167 24.667 52.5 42z" />
    <glyph glyph-name="ordfeminine" unicode="&#xaa;" horiz-adv-x="378" 
d="M318 326h-57.001v35c-27.333 -28.667 -63.333 -43 -108 -43c-29.333 0 -55.333 9.33301 -78 28s-34 44 -34 76c0 32.667 11.167 58 33.5 76s48.5 27 78.5 27c45.333 0 81.333 -14 108 -42v55c0 20 -7.66699 35.833 -23 47.5s-34.333 17.5 -57 17.5
c-39.333 0 -72 -15.333 -98 -46l-26 38c34.667 35.333 78.334 53 131.001 53c38 0 69.167 -9 93.5 -27s36.5 -46 36.5 -84v-211zM174.999 356c37.333 0 66 12.666 86 37.999v56c-20 25.333 -48.667 38 -86 38c-22 0 -40.167 -6.16699 -54.5 -18.5
s-21.5 -28.166 -21.5 -47.499c0 -20 7.16699 -36 21.5 -48s32.5 -18 54.5 -18z" />
    <glyph glyph-name="guillemotleft" unicode="&#xab;" horiz-adv-x="439" 
d="M409 63h-75l-160 180l160 177h75l-160 -177zM265 63h-75l-160 180l160 177h75l-160 -177z" />
    <glyph glyph-name="logicalnot" unicode="&#xac;" horiz-adv-x="504" 
d="M470 457v-246h-55v193h-386v53h441z" />
    <glyph glyph-name="registered" unicode="&#xae;" horiz-adv-x="494" 
d="M459 465c0 -58.667 -20.667 -108.667 -62 -150s-91.333 -62 -150 -62s-108.667 20.667 -150 62s-62 91.333 -62 150s20.667 108.667 62 150s91.333 62 150 62c59.333 0 109.5 -20.5 150.5 -61.5s61.5 -91.167 61.5 -150.5zM430 465
c0 51.333 -17.833 94.666 -53.5 129.999s-78.834 53 -129.501 53s-93.834 -17.667 -129.501 -53s-53.5 -78.666 -53.5 -129.999c0 -50 17.833 -93 53.5 -129s78.834 -54 129.501 -54s93.834 18 129.501 54s53.5 79 53.5 129zM345 343l-40 -0.000976562l-63 96h-44v-96h-32
v243h99c21.333 0 39.5 -6.83301 54.5 -20.5s22.5 -31.5 22.5 -53.5c0 -23.333 -7.5 -41.166 -22.5 -53.499s-28.167 -18.5 -39.5 -18.5zM309 511.999c0 12.667 -4.5 23.5 -13.5 32.5s-19.167 13.5 -30.5 13.5h-67v-90h67c10.667 0 20.667 4.33301 30 13s14 19 14 31z" />
    <glyph glyph-name="macron" unicode="&#xaf;" horiz-adv-x="363" 
d="M363 591h-363v48h363v-48z" />
    <glyph glyph-name="degree" unicode="&#xb0;" horiz-adv-x="290" 
d="M267 555c0 -34 -12 -62.833 -36 -86.5s-52.667 -35.5 -86 -35.5c-34 0 -62.833 11.833 -86.5 35.5s-35.5 52.5 -35.5 86.5c0 33.333 11.833 62 35.5 86s52.5 36 86.5 36c33.333 0 62 -12 86 -36s36 -52.667 36 -86zM219 555c0 20 -7.33301 37.333 -22 52s-32 22 -52 22
s-37.167 -7.33301 -51.5 -22s-21.5 -32 -21.5 -52c0 -20.667 7 -38 21 -52s31.333 -21 52 -21c20 0 37.333 7.16699 52 21.5s22 31.5 22 51.5z" />
    <glyph glyph-name="plusminus" unicode="&#xb1;" horiz-adv-x="499" 
d="M470 324h-192v-213h-57v213h-192v52h192v207h57v-207h192v-52zM470 0h-441v53h441v-53z" />
    <glyph glyph-name="twosuperior" unicode="&#xb2;" horiz-adv-x="388" 
d="M341 421h-291.001v45c83.333 60 142.333 107.167 177 141.5s52 66.833 52 97.5c0 24 -8.33301 42.167 -25 54.5s-36.667 18.5 -60 18.5s-45 -5 -65 -15s-35.667 -22.333 -47 -37l-33 38c33.333 42 82.333 63 147 63c40 0 73.833 -10 101.5 -30s41.5 -49.333 41.5 -88
c0 -36.667 -16.667 -73.5 -50 -110.5s-83.666 -79.833 -150.999 -128.5h203v-49z" />
    <glyph glyph-name="threesuperior" unicode="&#xb3;" horiz-adv-x="388" 
d="M343 530c0 -34.667 -13.501 -62.666 -40.501 -83.999s-63.833 -32 -110.5 -32c-68.667 0 -118.667 21.667 -150 65l33 38c28.667 -36 67.334 -54 116.001 -54c28.667 0 51.167 6.33301 67.5 19s24.5 29.667 24.5 51c0 46 -34.667 69 -104 69
c-22.667 0 -36 -0.333008 -40 -1v50c4.66699 -0.666992 18 -1 40 -1c65.333 0 98 21.333 98 64c0 20 -8.5 35.667 -25.5 47s-38.5 17 -64.5 17c-42.667 0 -79 -16 -109 -48l-31 35c36.667 41.333 85.334 62 146.001 62c42.667 0 77.167 -9.66699 103.5 -29
s39.5 -45.333 39.5 -78c0 -26.667 -9 -47.834 -27 -63.501s-38.667 -25.167 -62 -28.5c23.333 -2.66699 45.166 -12.5 65.499 -29.5s30.5 -39.833 30.5 -68.5z" />
    <glyph glyph-name="acute" unicode="&#xb4;" horiz-adv-x="226" 
d="M226 700l-169 -144h-57l148 144h78z" />
    <glyph glyph-name="mu" unicode="&#xb5;" horiz-adv-x="551" 
d="M150 -184l-74.999 -0.000976562v667h75v-318c0 -40.667 9.33301 -69.5 28 -86.5s45.667 -25.5 81 -25.5c27.333 0 54.166 7.33301 80.499 22s46.833 32.334 61.5 53.001v355h75v-483h-75v68c-20 -22.667 -45.167 -41.667 -75.5 -57s-62.5 -23 -96.5 -23
c-30.667 0 -57 4.66699 -79 14v-186z" />
    <glyph glyph-name="paragraph" unicode="&#xb6;" horiz-adv-x="449" 
d="M378 -100h-45v722h-89v-722h-45v423c-47.333 0 -87.833 16.833 -121.5 50.5s-50.5 74.167 -50.5 121.5s16.833 87.833 50.5 121.5s74.167 50.5 121.5 50.5h179v-767z" />
    <glyph glyph-name="periodcentered" unicode="&#xb7;" horiz-adv-x="231" 
d="M170 245c0 -15.333 -5.33301 -28.333 -16 -39s-23.667 -16 -39 -16s-28.333 5.33301 -39 16s-16 23.667 -16 39c0 14.667 5.5 27.334 16.5 38.001s23.833 16 38.5 16s27.5 -5.33301 38.5 -16s16.5 -23.334 16.5 -38.001z" />
    <glyph glyph-name="cedilla" unicode="&#xb8;" horiz-adv-x="205" 
d="M101 -191c-42 0 -75.665 10.001 -100.998 30.001l19 38c24 -19.333 50.667 -29 80 -29c17.333 0 31.833 3.66699 43.5 11s17.5 17.666 17.5 30.999c0 23.333 -12.333 35 -37 35c-16 0 -28.667 -5.66699 -38 -17l-33 19l31 84h45l-26 -66
c9.33301 7.33301 21.666 11 36.999 11c19.333 0 35.166 -6.16699 47.499 -18.5s18.5 -28.5 18.5 -48.5c0 -24 -9.83301 -43.333 -29.5 -58s-44.5 -22 -74.5 -22z" />
    <glyph glyph-name="onesuperior" unicode="&#xb9;" horiz-adv-x="235" 
d="M175 421h-60v322l-66 -69l-35 37l108 110h53v-400z" />
    <glyph glyph-name="ordmasculine" unicode="&#xba;" horiz-adv-x="405" 
d="M202 318c-48 0 -87.001 16.001 -117.001 48.001s-45 71 -45 117c0 46.667 14.833 85.834 44.5 117.501s68.834 47.5 117.501 47.5c49.333 0 88.833 -15.833 118.5 -47.5s44.5 -70.834 44.5 -117.501s-14.833 -85.834 -44.5 -117.501s-69.167 -47.5 -118.5 -47.5z
M201.999 366.001c32 0 57.333 11.168 76 33.501s28 50.166 28 83.499s-9.33301 61 -28 83s-44 33 -76 33c-31.333 0 -56.166 -11 -74.499 -33s-27.5 -49.667 -27.5 -83c0 -34 9.16699 -62 27.5 -84s43.166 -33 74.499 -33z" />
    <glyph glyph-name="guillemotright" unicode="&#xbb;" horiz-adv-x="439" 
d="M265 243l-160 -180h-75l160 180l-160 177h75zM409 243l-160 -180h-75l160 180l-160 177h75z" />
    <glyph glyph-name="onequarter" unicode="&#xbc;" horiz-adv-x="770" 
d="M590 667l-427 -667h-54l426 667h55zM733 100h-57v-100h-60v100h-196v45l173 255h83v-251h57v-49zM616 149v198l-136 -198h136zM175 267h-60v322l-66 -69l-35 37l108 110h53v-400z" />
    <glyph glyph-name="onehalf" unicode="&#xbd;" horiz-adv-x="807" 
d="M590 667l-427 -667h-54l426 667h55zM760 0h-291.001v45c83.333 60 142.333 107.167 177 141.5s52 66.833 52 97.5c0 24 -8.33301 42.167 -25 54.5s-36.667 18.5 -60 18.5s-45 -5 -65 -15s-35.667 -22.333 -47 -37l-33 38c33.333 42 82.333 63 147 63
c40 0 73.833 -10 101.5 -30s41.5 -49.333 41.5 -88c0 -36.667 -16.667 -73.5 -50 -110.5s-83.666 -79.833 -150.999 -128.5h203v-49zM174.999 267h-60v322l-66 -69l-35 37l108 110h53v-400z" />
    <glyph glyph-name="threequarters" unicode="&#xbe;" horiz-adv-x="878" 
d="M698 667l-427 -667h-54l426 667h55zM842 100h-57v-100h-60v100h-196v45l173 255h83v-251h57v-49zM725 149v198l-136 -198h136zM343 376c0 -34.667 -13.501 -62.666 -40.501 -83.999s-63.833 -32 -110.5 -32c-68.667 0 -118.667 21.667 -150 65l33 38
c28.667 -36 67.334 -54 116.001 -54c28.667 0 51.167 6.33301 67.5 19s24.5 29.667 24.5 51c0 46 -34.667 69 -104 69c-22.667 0 -36 -0.333008 -40 -1v50c4.66699 -0.666992 18 -1 40 -1c65.333 0 98 21.333 98 64c0 20 -8.5 35.667 -25.5 47s-38.5 17 -64.5 17
c-42.667 0 -79 -16 -109 -48l-31 35c36.667 41.333 85.334 62 146.001 62c42.667 0 77.167 -9.66699 103.5 -29s39.5 -45.333 39.5 -78c0 -26.667 -9 -47.834 -27 -63.501s-38.667 -25.167 -62 -28.5c23.333 -2.66699 45.166 -12.5 65.499 -29.5s30.5 -39.833 30.5 -68.5z
" />
    <glyph glyph-name="questiondown" unicode="&#xbf;" horiz-adv-x="394" 
d="M259 296c25.333 -21.333 38.001 -48.666 38.001 -81.999c0 -23.333 -6.16699 -44.333 -18.5 -63s-27.333 -34.5 -45 -47.5l-53 -37.5c-17.667 -12 -32.667 -26 -45 -42s-18.5 -33.667 -18.5 -53c0 -26.667 10.167 -48.834 30.5 -66.501s49.166 -26.5 86.499 -26.5
c66 0 119.333 27 160 81l50 -53c-52 -68 -124.333 -102 -217 -102c-59.333 0 -106.833 14.833 -142.5 44.5s-53.5 66.5 -53.5 110.5c0 28 6.66699 53.167 20 75.5s29.5 40.5 48.5 54.5l56.5 40c18.667 12.667 34.667 26.667 48 42s20 32 20 50c0 20 -8.66699 36 -26 48z
M238.001 493c14.667 0 27.5 -5.5 38.5 -16.5s16.5 -23.833 16.5 -38.5s-5.5 -27.5 -16.5 -38.5s-23.833 -16.5 -38.5 -16.5s-27.5 5.5 -38.5 16.5s-16.5 23.833 -16.5 38.5s5.5 27.5 16.5 38.5s23.833 16.5 38.5 16.5z" />
    <glyph glyph-name="Agrave" unicode="&#xc0;" horiz-adv-x="658" 
d="M396 728h-57l-169 144h78zM649 0h-95l-59 149h-332l-59 -149h-95l269 667h103zM471 222l-142 360l-141 -360h283z" />
    <glyph glyph-name="Aacute" unicode="&#xc1;" horiz-adv-x="658" 
d="M490 872l-169 -144h-57l148 144h78zM649 0h-95l-59 149h-332l-59 -149h-95l269 667h103zM471 222l-142 360l-141 -360h283z" />
    <glyph glyph-name="Acircumflex" unicode="&#xc2;" horiz-adv-x="658" 
d="M463 728h-51l-83 106l-80 -106h-51l95 144h72zM649 0h-95l-59 149h-332l-59 -149h-95l269 667h103zM471 222l-142 360l-141 -360h283z" />
    <glyph glyph-name="Atilde" unicode="&#xc3;" horiz-adv-x="658" 
d="M389 726c-16 0 -30.167 4.83301 -42.5 14.5s-21.666 20.167 -27.999 31.5s-14 21.833 -23 31.5s-18.833 14.5 -29.5 14.5c-14 0 -25.5 -7.16699 -34.5 -21.5s-13.5 -35.833 -13.5 -64.5h-45c0 40 8.5 72.333 25.5 97s40.833 37 71.5 37c16 0 30.167 -4.83301 42.5 -14.5
s21.666 -20.167 27.999 -31.5s14 -21.833 23 -31.5s18.833 -14.5 29.5 -14.5c14 0 25.5 7.16699 34.5 21.5s13.5 35.833 13.5 64.5h45c0 -40 -8.5 -72.333 -25.5 -97s-40.833 -37 -71.5 -37zM649 0h-95l-59 149h-332l-59 -149h-95l269 667h103zM471 222l-142 360l-141 -360
h283z" />
    <glyph glyph-name="Adieresis" unicode="&#xc4;" horiz-adv-x="658" 
d="M480 773c0 -12.667 -4.66699 -23.5 -14 -32.5s-20.333 -13.5 -33 -13.5s-23.5 4.5 -32.5 13.5s-13.5 19.833 -13.5 32.5s4.5 23.5 13.5 32.5s19.833 13.5 32.5 13.5c13.333 0 24.5 -4.5 33.5 -13.5s13.5 -19.833 13.5 -32.5zM273 773c0 -12.667 -4.5 -23.5 -13.5 -32.5
s-19.833 -13.5 -32.5 -13.5s-23.667 4.5 -33 13.5s-14 19.833 -14 32.5s4.5 23.5 13.5 32.5s20.167 13.5 33.5 13.5c12.667 0 23.5 -4.5 32.5 -13.5s13.5 -19.833 13.5 -32.5zM649 0h-95l-59 149h-332l-59 -149h-95l269 667h103zM471 222l-142 360l-141 -360h283z" />
    <glyph glyph-name="Aring" unicode="&#xc5;" horiz-adv-x="658" 
d="M330 692c-26.667 0 -49.834 9.66699 -69.501 29s-29.5 42.666 -29.5 69.999s9.83301 50.666 29.5 69.999s42.834 29 69.501 29s49.5 -9.66699 68.5 -29s28.5 -42.666 28.5 -69.999s-9.5 -50.666 -28.5 -69.999s-41.833 -29 -68.5 -29zM330 732
c16 0 29.667 5.83301 41 17.5s17 25.5 17 41.5s-5.66699 29.833 -17 41.5s-25 17.5 -41 17.5c-16.667 0 -30.667 -5.83301 -42 -17.5s-17 -25.5 -17 -41.5s5.66699 -29.833 17 -41.5s25.333 -17.5 42 -17.5zM649 0h-95l-59 149h-332l-59 -149h-95l269 667h103zM471 222
l-142 360l-141 -360h283z" />
    <glyph glyph-name="AE" unicode="&#xc6;" horiz-adv-x="948" 
d="M893 0h-437v149h-262l-92 -149h-95l416 667h470v-74h-354v-215h347v-74h-347v-230h354v-74zM456 222v360l-222 -360h222z" />
    <glyph glyph-name="Ccedilla" unicode="&#xc7;" horiz-adv-x="676" 
d="M388 -187c-42.667 0 -76.332 10.002 -100.999 30.002l19 38c24 -19.333 50.667 -29 80 -29c17.333 0 31.833 3.66699 43.5 11s17.5 17.666 17.5 30.999c0 23.333 -12.333 35 -37 35c-16 0 -28.667 -5.66699 -38 -17l-33 19l21 59
c-89.333 7.33301 -163.166 42.5 -221.499 105.5s-87.5 142.167 -87.5 237.5c0 101.333 32.833 184.166 98.5 248.499s147.167 96.5 244.5 96.5c107.333 0 191.666 -44 252.999 -132l-69 -39c-19.333 29.333 -45.5 52.833 -78.5 70.5s-68.167 26.5 -105.5 26.5
c-74 0 -135.333 -25.333 -184 -76s-73 -115.667 -73 -195c0 -78.667 24.5 -143.5 73.5 -194.5s110.167 -76.5 183.5 -76.5c37.333 0 72.5 9 105.5 27s59.167 41.333 78.5 70l70 -38c-63.333 -86 -144.666 -130.333 -243.999 -133l-15 -39
c9.33301 7.33301 21.666 11 36.999 11c19.333 0 35.166 -6.16699 47.499 -18.5s18.5 -28.5 18.5 -48.5c0 -24 -9.83301 -43.333 -29.5 -58s-44.5 -22 -74.5 -22z" />
    <glyph glyph-name="Egrave" unicode="&#xc8;" horiz-adv-x="569" 
d="M363 728h-57l-169 144h78zM515 0h-437v667h437v-74h-354v-215h347v-74h-347v-230h354v-74z" />
    <glyph glyph-name="Eacute" unicode="&#xc9;" horiz-adv-x="569" 
d="M456 872l-169 -144h-57l148 144h78zM515 0h-437v667h437v-74h-354v-215h347v-74h-347v-230h354v-74z" />
    <glyph glyph-name="Ecircumflex" unicode="&#xca;" horiz-adv-x="569" 
d="M428 728h-51l-83 106l-80 -106h-51l95 144h72zM515 0h-437v667h437v-74h-354v-215h347v-74h-347v-230h354v-74z" />
    <glyph glyph-name="Edieresis" unicode="&#xcb;" horiz-adv-x="569" 
d="M446 773c0 -12.667 -4.66699 -23.5 -14 -32.5s-20.333 -13.5 -33 -13.5s-23.5 4.5 -32.5 13.5s-13.5 19.833 -13.5 32.5s4.5 23.5 13.5 32.5s19.833 13.5 32.5 13.5c13.333 0 24.5 -4.5 33.5 -13.5s13.5 -19.833 13.5 -32.5zM239 773c0 -12.667 -4.5 -23.5 -13.5 -32.5
s-19.833 -13.5 -32.5 -13.5s-23.667 4.5 -33 13.5s-14 19.833 -14 32.5s4.5 23.5 13.5 32.5s20.167 13.5 33.5 13.5c12.667 0 23.5 -4.5 32.5 -13.5s13.5 -19.833 13.5 -32.5zM515 0h-437v667h437v-74h-354v-215h347v-74h-347v-230h354v-74z" />
    <glyph glyph-name="Igrave" unicode="&#xcc;" horiz-adv-x="239" 
d="M185 728h-57l-169 144h78zM161 0h-83v667h83v-667z" />
    <glyph glyph-name="Iacute" unicode="&#xcd;" horiz-adv-x="239" 
d="M281 872l-169 -144h-57l148 144h78zM161 0h-83v667h83v-667z" />
    <glyph glyph-name="Icircumflex" unicode="&#xce;" horiz-adv-x="239" 
d="M252 728h-51l-83 106l-80 -106h-51l95 144h72zM161 0h-83v667h83v-667z" />
    <glyph glyph-name="Idieresis" unicode="&#xcf;" horiz-adv-x="239" 
d="M269 773c0 -12.667 -4.66699 -23.5 -14 -32.5s-20.333 -13.5 -33 -13.5s-23.5 4.5 -32.5 13.5s-13.5 19.833 -13.5 32.5s4.5 23.5 13.5 32.5s19.833 13.5 32.5 13.5c13.333 0 24.5 -4.5 33.5 -13.5s13.5 -19.833 13.5 -32.5zM62 773c0 -12.667 -4.5 -23.5 -13.5 -32.5
s-19.833 -13.5 -32.5 -13.5s-23.667 4.5 -33 13.5s-14 19.833 -14 32.5s4.5 23.5 13.5 32.5s20.167 13.5 33.5 13.5c12.667 0 23.5 -4.5 32.5 -13.5s13.5 -19.833 13.5 -32.5zM161 0h-83v667h83v-667z" />
    <glyph glyph-name="Eth" unicode="&#xd0;" horiz-adv-x="728" 
d="M334 0l-227.999 0.000976562v299h-96v61h96v307h228c102 0 184.5 -31.667 247.5 -95s94.5 -143 94.5 -239c0 -96.667 -31.333 -176.334 -94 -239.001s-145.334 -94 -248.001 -94zM358.001 299.001h-169v-225h145c78.667 0 141 24.667 187 74s69 111 69 185
c0 74.667 -22.667 136.667 -68 186s-108 74 -188 74h-145v-233h169v-61z" />
    <glyph glyph-name="Ntilde" unicode="&#xd1;" horiz-adv-x="708" 
d="M412 726c-16 0 -30.167 4.83301 -42.5 14.5s-21.666 20.167 -27.999 31.5s-14 21.833 -23 31.5s-18.833 14.5 -29.5 14.5c-14 0 -25.5 -7.16699 -34.5 -21.5s-13.5 -35.833 -13.5 -64.5h-45c0 40 8.5 72.333 25.5 97s40.833 37 71.5 37c16 0 30.167 -4.83301 42.5 -14.5
s21.666 -20.167 27.999 -31.5s14 -21.833 23 -31.5s18.833 -14.5 29.5 -14.5c14 0 25.5 7.16699 34.5 21.5s13.5 35.833 13.5 64.5h45c0 -40 -8.5 -72.333 -25.5 -97s-40.833 -37 -71.5 -37zM630 0h-80l-389 532v-532h-83v667h85l384 -521v521h83v-667z" />
    <glyph glyph-name="Ograve" unicode="&#xd2;" horiz-adv-x="765" 
d="M452 728h-57l-169 144h78zM382 -12c-97.333 0 -176.833 32.667 -238.5 98s-92.5 147.666 -92.5 246.999s30.833 181.666 92.5 246.999s141.167 98 238.5 98s177 -32.667 239 -98s93 -147.666 93 -246.999s-31 -181.666 -93 -246.999s-141.667 -98 -239 -98zM382 62
c73.333 0 132.666 25.5 177.999 76.5s68 115.833 68 194.5s-22.667 143.5 -68 194.5s-104.666 76.5 -177.999 76.5c-74 0 -133.333 -25.333 -178 -76s-67 -115.667 -67 -195c0 -78.667 22.333 -143.5 67 -194.5s104 -76.5 178 -76.5z" />
    <glyph glyph-name="Oacute" unicode="&#xd3;" horiz-adv-x="765" 
d="M544 872l-169 -144h-57l148 144h78zM382 -12c-97.333 0 -176.833 32.667 -238.5 98s-92.5 147.666 -92.5 246.999s30.833 181.666 92.5 246.999s141.167 98 238.5 98s177 -32.667 239 -98s93 -147.666 93 -246.999s-31 -181.666 -93 -246.999s-141.667 -98 -239 -98z
M382 62c73.333 0 132.666 25.5 177.999 76.5s68 115.833 68 194.5s-22.667 143.5 -68 194.5s-104.666 76.5 -177.999 76.5c-74 0 -133.333 -25.333 -178 -76s-67 -115.667 -67 -195c0 -78.667 22.333 -143.5 67 -194.5s104 -76.5 178 -76.5z" />
    <glyph glyph-name="Ocircumflex" unicode="&#xd4;" horiz-adv-x="765" 
d="M517 728h-51l-83 106l-80 -106h-51l95 144h72zM382 -12c-97.333 0 -176.833 32.667 -238.5 98s-92.5 147.666 -92.5 246.999s30.833 181.666 92.5 246.999s141.167 98 238.5 98s177 -32.667 239 -98s93 -147.666 93 -246.999s-31 -181.666 -93 -246.999
s-141.667 -98 -239 -98zM382 62c73.333 0 132.666 25.5 177.999 76.5s68 115.833 68 194.5s-22.667 143.5 -68 194.5s-104.666 76.5 -177.999 76.5c-74 0 -133.333 -25.333 -178 -76s-67 -115.667 -67 -195c0 -78.667 22.333 -143.5 67 -194.5s104 -76.5 178 -76.5z" />
    <glyph glyph-name="Otilde" unicode="&#xd5;" horiz-adv-x="765" 
d="M442 726c-16 0 -30.167 4.83301 -42.5 14.5s-21.666 20.167 -27.999 31.5s-14 21.833 -23 31.5s-18.833 14.5 -29.5 14.5c-14 0 -25.5 -7.16699 -34.5 -21.5s-13.5 -35.833 -13.5 -64.5h-45c0 40 8.5 72.333 25.5 97s40.833 37 71.5 37c16 0 30.167 -4.83301 42.5 -14.5
s21.666 -20.167 27.999 -31.5s14 -21.833 23 -31.5s18.833 -14.5 29.5 -14.5c14 0 25.5 7.16699 34.5 21.5s13.5 35.833 13.5 64.5h45c0 -40 -8.5 -72.333 -25.5 -97s-40.833 -37 -71.5 -37zM382 -12c-97.333 0 -176.833 32.667 -238.5 98s-92.5 147.666 -92.5 246.999
s30.833 181.666 92.5 246.999s141.167 98 238.5 98s177 -32.667 239 -98s93 -147.666 93 -246.999s-31 -181.666 -93 -246.999s-141.667 -98 -239 -98zM382 62c73.333 0 132.666 25.5 177.999 76.5s68 115.833 68 194.5s-22.667 143.5 -68 194.5
s-104.666 76.5 -177.999 76.5c-74 0 -133.333 -25.333 -178 -76s-67 -115.667 -67 -195c0 -78.667 22.333 -143.5 67 -194.5s104 -76.5 178 -76.5z" />
    <glyph glyph-name="Odieresis" unicode="&#xd6;" horiz-adv-x="765" 
d="M532 773c0 -12.667 -4.66699 -23.5 -14 -32.5s-20.333 -13.5 -33 -13.5s-23.5 4.5 -32.5 13.5s-13.5 19.833 -13.5 32.5s4.5 23.5 13.5 32.5s19.833 13.5 32.5 13.5c13.333 0 24.5 -4.5 33.5 -13.5s13.5 -19.833 13.5 -32.5zM325 773c0 -12.667 -4.5 -23.5 -13.5 -32.5
s-19.833 -13.5 -32.5 -13.5s-23.667 4.5 -33 13.5s-14 19.833 -14 32.5s4.5 23.5 13.5 32.5s20.167 13.5 33.5 13.5c12.667 0 23.5 -4.5 32.5 -13.5s13.5 -19.833 13.5 -32.5zM382 -12c-97.333 0 -176.833 32.667 -238.5 98s-92.5 147.666 -92.5 246.999
s30.833 181.666 92.5 246.999s141.167 98 238.5 98s177 -32.667 239 -98s93 -147.666 93 -246.999s-31 -181.666 -93 -246.999s-141.667 -98 -239 -98zM382 62c73.333 0 132.666 25.5 177.999 76.5s68 115.833 68 194.5s-22.667 143.5 -68 194.5
s-104.666 76.5 -177.999 76.5c-74 0 -133.333 -25.333 -178 -76s-67 -115.667 -67 -195c0 -78.667 22.333 -143.5 67 -194.5s104 -76.5 178 -76.5z" />
    <glyph glyph-name="multiply" unicode="&#xd7;" horiz-adv-x="499" 
d="M398 148l-149 149l-148 -149l-37 37l149 149l-149 149l37 37l148 -149l149 149l37 -37l-148 -149l148 -149z" />
    <glyph glyph-name="Oslash" unicode="&#xd8;" horiz-adv-x="765" 
d="M382 -12c-64 0 -121.333 15.001 -172 45.001l-22 -33h-67l44 65c-76 65.333 -114 154.666 -114 267.999c0 99.333 30.833 181.666 92.5 246.999s141.167 98 238.5 98c61.333 0 117 -14 167 -42l21 31h67l-42 -63c37.333 -31.333 66.5 -70.5 87.5 -117.5
s31.5 -98.167 31.5 -153.5c0 -99.333 -31 -181.666 -93 -246.999s-141.667 -98 -239 -98zM382 62.001c73.333 0 132.667 25.5 178 76.5s68 115.833 68 194.5c0 86 -26 154.333 -78 205l-297 -441c36.667 -23.333 79.667 -35 129 -35zM137.001 333.001
c0 -83.333 24.332 -150.333 72.999 -201l296 440c-37.333 21.333 -78.666 32 -123.999 32c-74 0 -133.333 -25.333 -178 -76s-67 -115.667 -67 -195z" />
    <glyph glyph-name="Ugrave" unicode="&#xd9;" horiz-adv-x="701" 
d="M418 728h-57l-169 144h78zM350 -12c-88 0 -155.333 24.167 -202 72.5s-70 114.5 -70 198.5v408h84v-406c0 -62 16.167 -110.667 48.5 -146s78.833 -53 139.5 -53s107.334 17.667 140.001 53s49 84 49 146v406h84v-407c0 -84.667 -23.333 -151.167 -70 -199.5
s-114.334 -72.5 -203.001 -72.5z" />
    <glyph glyph-name="Uacute" unicode="&#xda;" horiz-adv-x="701" 
d="M510 872l-169 -144h-57l148 144h78zM350 -12c-88 0 -155.333 24.167 -202 72.5s-70 114.5 -70 198.5v408h84v-406c0 -62 16.167 -110.667 48.5 -146s78.833 -53 139.5 -53s107.334 17.667 140.001 53s49 84 49 146v406h84v-407c0 -84.667 -23.333 -151.167 -70 -199.5
s-114.334 -72.5 -203.001 -72.5z" />
    <glyph glyph-name="Ucircumflex" unicode="&#xdb;" horiz-adv-x="701" 
d="M488 728h-51l-83 106l-80 -106h-51l95 144h72zM350 -12c-88 0 -155.333 24.167 -202 72.5s-70 114.5 -70 198.5v408h84v-406c0 -62 16.167 -110.667 48.5 -146s78.833 -53 139.5 -53s107.334 17.667 140.001 53s49 84 49 146v406h84v-407
c0 -84.667 -23.333 -151.167 -70 -199.5s-114.334 -72.5 -203.001 -72.5z" />
    <glyph glyph-name="Udieresis" unicode="&#xdc;" horiz-adv-x="701" 
d="M501 773c0 -12.667 -4.66699 -23.5 -14 -32.5s-20.333 -13.5 -33 -13.5s-23.5 4.5 -32.5 13.5s-13.5 19.833 -13.5 32.5s4.5 23.5 13.5 32.5s19.833 13.5 32.5 13.5c13.333 0 24.5 -4.5 33.5 -13.5s13.5 -19.833 13.5 -32.5zM294 773c0 -12.667 -4.5 -23.5 -13.5 -32.5
s-19.833 -13.5 -32.5 -13.5s-23.667 4.5 -33 13.5s-14 19.833 -14 32.5s4.5 23.5 13.5 32.5s20.167 13.5 33.5 13.5c12.667 0 23.5 -4.5 32.5 -13.5s13.5 -19.833 13.5 -32.5zM350 -12c-88 0 -155.333 24.167 -202 72.5s-70 114.5 -70 198.5v408h84v-406
c0 -62 16.167 -110.667 48.5 -146s78.833 -53 139.5 -53s107.334 17.667 140.001 53s49 84 49 146v406h84v-407c0 -84.667 -23.333 -151.167 -70 -199.5s-114.334 -72.5 -203.001 -72.5z" />
    <glyph glyph-name="Yacute" unicode="&#xdd;" horiz-adv-x="626" 
d="M477 872l-169 -144h-57l148 144h78zM355 0h-83v282l-263 385h97l207 -310l207 310h97l-262 -385v-282z" />
    <glyph glyph-name="Thorn" unicode="&#xde;" horiz-adv-x="587" 
d="M161 0h-83v667h83v-119h185c64.667 0 115.667 -19.333 153 -58s56 -86.667 56 -144c0 -56.667 -18.833 -104.167 -56.5 -142.5s-88.5 -57.5 -152.5 -57.5h-185v-146zM336 220c39.333 0 71.333 11.668 96 35.001s37 53.666 37 90.999s-12.333 68 -37 92s-56.667 36 -96 36
h-175v-254h175z" />
    <glyph glyph-name="germandbls" unicode="&#xdf;" horiz-adv-x="597" 
d="M578 135c0 -41.333 -16.168 -76.165 -48.501 -104.498s-78.166 -42.5 -137.499 -42.5c-44 0 -79.667 6.66699 -107 20s-53.666 32.666 -78.999 57.999l38 52c14.667 -20 35 -36.333 61 -49s55 -19 87 -19c36.667 0 64.667 8 84 24s29 35.667 29 59
c0 21.333 -9.83301 38.166 -29.5 50.499s-43.5 21.833 -71.5 28.5s-56.167 14.334 -84.5 23.001s-52.333 23 -72 43s-29.5 46.333 -29.5 79c0 24 7.66699 45.667 23 65s32 34 50 44s34.667 21.833 50 35.5s23 27.5 23 41.5c0 20.667 -10 37 -30 49s-43 18 -69 18
c-32.667 0 -59.834 -10.167 -81.501 -30.5s-32.5 -47.166 -32.5 -80.499v-499h-75v499c0 50.667 17.333 93 52 127s80.667 51 138 51c48 0 89.167 -11.5 123.5 -34.5s51.5 -53.5 51.5 -91.5c0 -20 -5.16699 -37.833 -15.5 -53.5s-22.833 -28.5 -37.5 -38.5l-44 -29
c-14.667 -9.33301 -27.167 -20.166 -37.5 -32.499s-15.5 -25.833 -15.5 -40.5c0 -18.667 9.83301 -33.334 29.5 -44.001s43.667 -19.167 72 -25.5s56.5 -13.833 84.5 -22.5s51.833 -23.834 71.5 -45.501s29.5 -49.834 29.5 -84.501z" />
    <glyph glyph-name="agrave" unicode="&#xe0;" horiz-adv-x="575" 
d="M361 556h-57l-169 144h78zM500 0h-75.001v72c-41.333 -56 -95.666 -84 -162.999 -84c-64 0 -115.833 22.833 -155.5 68.5s-59.5 107.167 -59.5 184.5c0 76.667 20 138.167 60 184.5s91.667 69.5 155 69.5c66.667 0 121 -28.333 163 -85v73h75v-483zM280.999 55
c28.667 0 56.5 7.50098 83.5 22.501s47.167 33.167 60.5 54.5v218c-13.333 22 -33.5 40.5 -60.5 55.5s-54.833 22.5 -83.5 22.5c-48 0 -86 -17.5 -114 -52.5s-42 -79.833 -42 -134.5s14 -99.334 42 -134.001s66 -52 114 -52z" />
    <glyph glyph-name="aacute" unicode="&#xe1;" horiz-adv-x="575" 
d="M454 700l-169 -144h-57l148 144h78zM500 0h-75.001v72c-41.333 -56 -95.666 -84 -162.999 -84c-64 0 -115.833 22.833 -155.5 68.5s-59.5 107.167 -59.5 184.5c0 76.667 20 138.167 60 184.5s91.667 69.5 155 69.5c66.667 0 121 -28.333 163 -85v73h75v-483zM280.999 55
c28.667 0 56.5 7.50098 83.5 22.501s47.167 33.167 60.5 54.5v218c-13.333 22 -33.5 40.5 -60.5 55.5s-54.833 22.5 -83.5 22.5c-48 0 -86 -17.5 -114 -52.5s-42 -79.833 -42 -134.5s14 -99.334 42 -134.001s66 -52 114 -52z" />
    <glyph glyph-name="acircumflex" unicode="&#xe2;" horiz-adv-x="575" 
d="M426 556h-51l-83 106l-80 -106h-51l95 144h72zM500 0h-75.001v72c-41.333 -56 -95.666 -84 -162.999 -84c-64 0 -115.833 22.833 -155.5 68.5s-59.5 107.167 -59.5 184.5c0 76.667 20 138.167 60 184.5s91.667 69.5 155 69.5c66.667 0 121 -28.333 163 -85v73h75v-483z
M280.999 55c28.667 0 56.5 7.50098 83.5 22.501s47.167 33.167 60.5 54.5v218c-13.333 22 -33.5 40.5 -60.5 55.5s-54.833 22.5 -83.5 22.5c-48 0 -86 -17.5 -114 -52.5s-42 -79.833 -42 -134.5s14 -99.334 42 -134.001s66 -52 114 -52z" />
    <glyph glyph-name="atilde" unicode="&#xe3;" horiz-adv-x="575" 
d="M353 554c-16 0 -30.167 4.83301 -42.5 14.5s-21.666 20.167 -27.999 31.5s-14 21.833 -23 31.5s-18.833 14.5 -29.5 14.5c-14 0 -25.5 -7.16699 -34.5 -21.5s-13.5 -35.833 -13.5 -64.5h-45c0 40 8.5 72.333 25.5 97s40.833 37 71.5 37c16 0 30.167 -4.83301 42.5 -14.5
s21.666 -20.167 27.999 -31.5s14 -21.833 23 -31.5s18.833 -14.5 29.5 -14.5c14 0 25.5 7.16699 34.5 21.5s13.5 35.833 13.5 64.5h45c0 -40 -8.5 -72.333 -25.5 -97s-40.833 -37 -71.5 -37zM500 0h-75.001v72c-41.333 -56 -95.666 -84 -162.999 -84
c-64 0 -115.833 22.833 -155.5 68.5s-59.5 107.167 -59.5 184.5c0 76.667 20 138.167 60 184.5s91.667 69.5 155 69.5c66.667 0 121 -28.333 163 -85v73h75v-483zM280.999 55c28.667 0 56.5 7.50098 83.5 22.501s47.167 33.167 60.5 54.5v218
c-13.333 22 -33.5 40.5 -60.5 55.5s-54.833 22.5 -83.5 22.5c-48 0 -86 -17.5 -114 -52.5s-42 -79.833 -42 -134.5s14 -99.334 42 -134.001s66 -52 114 -52z" />
    <glyph glyph-name="adieresis" unicode="&#xe4;" horiz-adv-x="575" 
d="M443 604c0 -12.667 -4.66699 -23.5 -14 -32.5s-20.333 -13.5 -33 -13.5s-23.5 4.5 -32.5 13.5s-13.5 19.833 -13.5 32.5s4.5 23.5 13.5 32.5s19.833 13.5 32.5 13.5c13.333 0 24.5 -4.5 33.5 -13.5s13.5 -19.833 13.5 -32.5zM236 604c0 -12.667 -4.5 -23.5 -13.5 -32.5
s-19.833 -13.5 -32.5 -13.5s-23.667 4.5 -33 13.5s-14 19.833 -14 32.5s4.5 23.5 13.5 32.5s20.167 13.5 33.5 13.5c12.667 0 23.5 -4.5 32.5 -13.5s13.5 -19.833 13.5 -32.5zM500 0h-75.001v72c-41.333 -56 -95.666 -84 -162.999 -84c-64 0 -115.833 22.833 -155.5 68.5
s-59.5 107.167 -59.5 184.5c0 76.667 20 138.167 60 184.5s91.667 69.5 155 69.5c66.667 0 121 -28.333 163 -85v73h75v-483zM280.999 55c28.667 0 56.5 7.50098 83.5 22.501s47.167 33.167 60.5 54.5v218c-13.333 22 -33.5 40.5 -60.5 55.5s-54.833 22.5 -83.5 22.5
c-48 0 -86 -17.5 -114 -52.5s-42 -79.833 -42 -134.5s14 -99.334 42 -134.001s66 -52 114 -52z" />
    <glyph glyph-name="aring" unicode="&#xe5;" horiz-adv-x="575" 
d="M291 554c-27.333 0 -50.666 9.66699 -69.999 29s-29 42.666 -29 69.999s9.66699 50.666 29 69.999s42.666 29 69.999 29c26.667 0 49.5 -9.66699 68.5 -29s28.5 -42.666 28.5 -69.999s-9.5 -50.666 -28.5 -69.999s-41.833 -29 -68.5 -29zM291 594
c16 0 29.667 5.83301 41 17.5s17 25.5 17 41.5s-5.66699 29.833 -17 41.5s-25 17.5 -41 17.5c-16.667 0 -30.667 -5.83301 -42 -17.5s-17 -25.5 -17 -41.5s5.66699 -29.833 17 -41.5s25.333 -17.5 42 -17.5zM500 0h-75.001v72c-41.333 -56 -95.666 -84 -162.999 -84
c-64 0 -115.833 22.833 -155.5 68.5s-59.5 107.167 -59.5 184.5c0 76.667 20 138.167 60 184.5s91.667 69.5 155 69.5c66.667 0 121 -28.333 163 -85v73h75v-483zM280.999 55c28.667 0 56.5 7.50098 83.5 22.501s47.167 33.167 60.5 54.5v218
c-13.333 22 -33.5 40.5 -60.5 55.5s-54.833 22.5 -83.5 22.5c-48 0 -86 -17.5 -114 -52.5s-42 -79.833 -42 -134.5s14 -99.334 42 -134.001s66 -52 114 -52z" />
    <glyph glyph-name="ae" unicode="&#xe6;" horiz-adv-x="936" 
d="M500 0l-75.002 -0.000976562v72c-41.333 -56 -95.666 -84 -162.999 -84c-64 0 -115.833 22.833 -155.5 68.5s-59.5 107.167 -59.5 184.5c0 76.667 20 138.167 60 184.5s91.667 69.5 155 69.5c66.667 0 121 -28.333 163 -85v73h75v-94
c38.667 70.667 97.334 106 176.001 106c66 0 118.333 -24.5 157 -73.5s58 -110.833 58 -185.5v-19h-391c3.33301 -47.333 20.5 -86.666 51.5 -117.999s71.5 -47 121.5 -47c60.667 0 110.667 20.333 150 61l36 -50c-48 -50 -106.333 -75 -175 -75c-84.667 0 -146 35 -184 105
v-93zM280.998 54.999c28.667 0 56.5 7.50098 83.5 22.501s47.167 33.167 60.5 54.5v218c-13.333 22 -33.5 40.5 -60.5 55.5s-54.833 22.5 -83.5 22.5c-48 0 -86 -17.5 -114 -52.5s-42 -79.833 -42 -134.5s14 -99.334 42 -134.001s66 -52 114 -52zM816.998 273
c-0.666992 40.667 -14.667 77.5 -42 110.5s-66.333 49.5 -117 49.5c-48 0 -85.833 -16.333 -113.5 -49s-42.5 -69.667 -44.5 -111h317z" />
    <glyph glyph-name="ccedilla" unicode="&#xe7;" horiz-adv-x="496" 
d="M290 -189c-42.667 0 -76.3291 10.0029 -100.996 30.0029l19 38c24 -19.333 50.667 -29 80 -29c17.333 0 31.833 3.66699 43.5 11s17.5 17.666 17.5 30.999c0 23.333 -12.333 35 -37 35c-16 0 -28.667 -5.66699 -38 -17l-33 19l22 61
c-64.667 5.33301 -116.834 31.666 -156.501 78.999s-59.5 105 -59.5 173c0 72.667 22.333 133 67 181s102.667 72 174 72c74.667 0 133.667 -28 177 -84l-50 -45c-30 41.333 -71 62 -123 62c-50 0 -90.333 -17.5 -121 -52.5s-46 -79.5 -46 -133.5
c0 -54.667 15.333 -99.5 46 -134.5s71 -52.5 121 -52.5c50.667 0 91.667 21 123 63l50 -46c-38.667 -50.667 -91.334 -78.334 -158.001 -83.001l-16 -42c9.33301 7.33301 21.666 11 36.999 11c19.333 0 35.166 -6.16699 47.499 -18.5s18.5 -28.5 18.5 -48.5
c0 -24 -9.83301 -43.333 -29.5 -58s-44.5 -22 -74.5 -22z" />
    <glyph glyph-name="egrave" unicode="&#xe8;" horiz-adv-x="563" 
d="M294 -12c-72.667 0 -132 23.5 -178 70.5s-69 108.167 -69 183.5c0 70.667 22.667 130.5 68 179.5s102 73.5 170 73.5c71.333 0 127.833 -24.5 169.5 -73.5s62.5 -110.833 62.5 -185.5v-19h-390c3.33301 -47.333 20.5 -87 51.5 -119s71.5 -48 121.5 -48
c60 0 110 20.667 150 62l36 -49c-51.333 -50 -115.333 -75 -192 -75zM443 273c-0.666992 40.667 -14.667 77.5 -42 110.5s-66.333 49.5 -117 49.5c-48 0 -85.833 -16.333 -113.5 -49s-42.5 -69.667 -44.5 -111h317zM352 556h-57l-169 144h78z" />
    <glyph glyph-name="eacute" unicode="&#xe9;" horiz-adv-x="563" 
d="M294 -12c-72.667 0 -132 23.5 -178 70.5s-69 108.167 -69 183.5c0 70.667 22.667 130.5 68 179.5s102 73.5 170 73.5c71.333 0 127.833 -24.5 169.5 -73.5s62.5 -110.833 62.5 -185.5v-19h-390c3.33301 -47.333 20.5 -87 51.5 -119s71.5 -48 121.5 -48
c60 0 110 20.667 150 62l36 -49c-51.333 -50 -115.333 -75 -192 -75zM443 273c-0.666992 40.667 -14.667 77.5 -42 110.5s-66.333 49.5 -117 49.5c-48 0 -85.833 -16.333 -113.5 -49s-42.5 -69.667 -44.5 -111h317zM446 700l-169 -144h-57l148 144h78z" />
    <glyph glyph-name="ecircumflex" unicode="&#xea;" horiz-adv-x="563" 
d="M294 -12c-72.667 0 -132 23.5 -178 70.5s-69 108.167 -69 183.5c0 70.667 22.667 130.5 68 179.5s102 73.5 170 73.5c71.333 0 127.833 -24.5 169.5 -73.5s62.5 -110.833 62.5 -185.5v-19h-390c3.33301 -47.333 20.5 -87 51.5 -119s71.5 -48 121.5 -48
c60 0 110 20.667 150 62l36 -49c-51.333 -50 -115.333 -75 -192 -75zM443 273c-0.666992 40.667 -14.667 77.5 -42 110.5s-66.333 49.5 -117 49.5c-48 0 -85.833 -16.333 -113.5 -49s-42.5 -69.667 -44.5 -111h317zM419 556h-51l-83 106l-80 -106h-51l95 144h72z" />
    <glyph glyph-name="edieresis" unicode="&#xeb;" horiz-adv-x="563" 
d="M294 -12c-72.667 0 -132 23.5 -178 70.5s-69 108.167 -69 183.5c0 70.667 22.667 130.5 68 179.5s102 73.5 170 73.5c71.333 0 127.833 -24.5 169.5 -73.5s62.5 -110.833 62.5 -185.5v-19h-390c3.33301 -47.333 20.5 -87 51.5 -119s71.5 -48 121.5 -48
c60 0 110 20.667 150 62l36 -49c-51.333 -50 -115.333 -75 -192 -75zM443 273c-0.666992 40.667 -14.667 77.5 -42 110.5s-66.333 49.5 -117 49.5c-48 0 -85.833 -16.333 -113.5 -49s-42.5 -69.667 -44.5 -111h317zM436 604c0 -12.667 -4.66699 -23.5 -14 -32.5
s-20.333 -13.5 -33 -13.5s-23.5 4.5 -32.5 13.5s-13.5 19.833 -13.5 32.5s4.5 23.5 13.5 32.5s19.833 13.5 32.5 13.5c13.333 0 24.5 -4.5 33.5 -13.5s13.5 -19.833 13.5 -32.5zM229 604c0 -12.667 -4.5 -23.5 -13.5 -32.5s-19.833 -13.5 -32.5 -13.5s-23.667 4.5 -33 13.5
s-14 19.833 -14 32.5s4.5 23.5 13.5 32.5s20.167 13.5 33.5 13.5c12.667 0 23.5 -4.5 32.5 -13.5s13.5 -19.833 13.5 -32.5z" />
    <glyph glyph-name="igrave" unicode="&#xec;" horiz-adv-x="225" 
d="M178 556h-57l-169 144h78zM150 0h-75v483h75v-483z" />
    <glyph glyph-name="iacute" unicode="&#xed;" horiz-adv-x="225" 
d="M273 700l-169 -144h-57l148 144h78zM150 0h-75v483h75v-483z" />
    <glyph glyph-name="icircumflex" unicode="&#xee;" horiz-adv-x="225" 
d="M246 556h-51l-83 106l-80 -106h-51l95 144h72zM150 0h-75v483h75v-483z" />
    <glyph glyph-name="idieresis" unicode="&#xef;" horiz-adv-x="225" 
d="M263 604c0 -12.667 -4.66699 -23.5 -14 -32.5s-20.333 -13.5 -33 -13.5s-23.5 4.5 -32.5 13.5s-13.5 19.833 -13.5 32.5s4.5 23.5 13.5 32.5s19.833 13.5 32.5 13.5c13.333 0 24.5 -4.5 33.5 -13.5s13.5 -19.833 13.5 -32.5zM56 604c0 -12.667 -4.5 -23.5 -13.5 -32.5
s-19.833 -13.5 -32.5 -13.5s-23.667 4.5 -33 13.5s-14 19.833 -14 32.5s4.5 23.5 13.5 32.5s20.167 13.5 33.5 13.5c12.667 0 23.5 -4.5 32.5 -13.5s13.5 -19.833 13.5 -32.5zM150 0h-75v483h75v-483z" />
    <glyph glyph-name="eth" unicode="&#xf0;" 
d="M122 497l-18.001 41.998l118 52l-75 48l41 62c44.667 -27.333 82 -52.666 112 -75.999l108 48l17 -41l-86 -38c124 -105.333 186 -221 186 -347c0 -76 -21.667 -138.167 -65 -186.5s-101.333 -72.5 -174 -72.5c-71.333 0 -129 23.333 -173 70s-66 105.334 -66 176.001
s20.667 129.167 62 175.5s94 69.5 158 69.5c65.333 0 118 -29.333 158 -88c-33.333 60 -86.666 116.667 -159.999 170zM285.999 54.998c49.333 0 88.333 17.333 117 52s43 77 43 127c0 49.333 -14.333 91.333 -43 126s-67.667 52 -117 52s-88.333 -17.333 -117 -52
s-43 -76.667 -43 -126c0 -50 14.333 -92.333 43 -127s67.667 -52 117 -52z" />
    <glyph glyph-name="ntilde" unicode="&#xf1;" horiz-adv-x="552" 
d="M479 0l-74 0.000976562v316c0 40.667 -9.33301 69.5 -28 86.5s-45.667 25.5 -81 25.5c-28 0 -55 -7.33301 -81 -22s-46.667 -32.334 -62 -53.001v-353h-75v483h75v-70c18.667 22.667 43.667 42 75 58s64 24 98 24c102 0 153 -52 153 -156v-339zM336 554.001
c-16 0 -30.167 4.83301 -42.5 14.5s-21.666 20.167 -27.999 31.5s-14 21.833 -23 31.5s-18.833 14.5 -29.5 14.5c-14 0 -25.5 -7.16699 -34.5 -21.5s-13.5 -35.833 -13.5 -64.5h-45c0 40 8.5 72.333 25.5 97s40.833 37 71.5 37c16 0 30.167 -4.83301 42.5 -14.5
s21.666 -20.167 27.999 -31.5s14 -21.833 23 -31.5s18.833 -14.5 29.5 -14.5c14 0 25.5 7.16699 34.5 21.5s13.5 35.833 13.5 64.5h45c0 -40 -8.5 -72.333 -25.5 -97s-40.833 -37 -71.5 -37z" />
    <glyph glyph-name="ograve" unicode="&#xf2;" 
d="M286 -12c-72 0 -129.833 24.333 -173.5 73s-65.5 109 -65.5 181s21.833 132.167 65.5 180.5s101.5 72.5 173.5 72.5s129.833 -24.167 173.5 -72.5s65.5 -108.5 65.5 -180.5s-21.833 -132.333 -65.5 -181s-101.5 -73 -173.5 -73zM286 55c49.333 0 88.333 18.167 117 54.5
s43 80.5 43 132.5s-14.333 96 -43 132s-67.667 54 -117 54s-88.333 -18 -117 -54s-43 -80 -43 -132s14.333 -96.167 43 -132.5s67.667 -54.5 117 -54.5zM352 556h-57l-169 144h78z" />
    <glyph glyph-name="oacute" unicode="&#xf3;" 
d="M286 -12c-72 0 -129.833 24.333 -173.5 73s-65.5 109 -65.5 181s21.833 132.167 65.5 180.5s101.5 72.5 173.5 72.5s129.833 -24.167 173.5 -72.5s65.5 -108.5 65.5 -180.5s-21.833 -132.333 -65.5 -181s-101.5 -73 -173.5 -73zM286 55c49.333 0 88.333 18.167 117 54.5
s43 80.5 43 132.5s-14.333 96 -43 132s-67.667 54 -117 54s-88.333 -18 -117 -54s-43 -80 -43 -132s14.333 -96.167 43 -132.5s67.667 -54.5 117 -54.5zM446 700l-169 -144h-57l148 144h78z" />
    <glyph glyph-name="ocircumflex" unicode="&#xf4;" 
d="M286 -12c-72 0 -129.833 24.333 -173.5 73s-65.5 109 -65.5 181s21.833 132.167 65.5 180.5s101.5 72.5 173.5 72.5s129.833 -24.167 173.5 -72.5s65.5 -108.5 65.5 -180.5s-21.833 -132.333 -65.5 -181s-101.5 -73 -173.5 -73zM286 55c49.333 0 88.333 18.167 117 54.5
s43 80.5 43 132.5s-14.333 96 -43 132s-67.667 54 -117 54s-88.333 -18 -117 -54s-43 -80 -43 -132s14.333 -96.167 43 -132.5s67.667 -54.5 117 -54.5zM420 556h-51l-83 106l-80 -106h-51l95 144h72z" />
    <glyph glyph-name="otilde" unicode="&#xf5;" 
d="M286 -12c-72 0 -129.833 24.333 -173.5 73s-65.5 109 -65.5 181s21.833 132.167 65.5 180.5s101.5 72.5 173.5 72.5s129.833 -24.167 173.5 -72.5s65.5 -108.5 65.5 -180.5s-21.833 -132.333 -65.5 -181s-101.5 -73 -173.5 -73zM286 55c49.333 0 88.333 18.167 117 54.5
s43 80.5 43 132.5s-14.333 96 -43 132s-67.667 54 -117 54s-88.333 -18 -117 -54s-43 -80 -43 -132s14.333 -96.167 43 -132.5s67.667 -54.5 117 -54.5zM346 554c-16 0 -30.167 4.83301 -42.5 14.5s-21.666 20.167 -27.999 31.5s-14 21.833 -23 31.5
s-18.833 14.5 -29.5 14.5c-14 0 -25.5 -7.16699 -34.5 -21.5s-13.5 -35.833 -13.5 -64.5h-45c0 40 8.5 72.333 25.5 97s40.833 37 71.5 37c16 0 30.167 -4.83301 42.5 -14.5s21.666 -20.167 27.999 -31.5s14 -21.833 23 -31.5s18.833 -14.5 29.5 -14.5
c14 0 25.5 7.16699 34.5 21.5s13.5 35.833 13.5 64.5h45c0 -40 -8.5 -72.333 -25.5 -97s-40.833 -37 -71.5 -37z" />
    <glyph glyph-name="odieresis" unicode="&#xf6;" 
d="M286 -12c-72 0 -129.833 24.333 -173.5 73s-65.5 109 -65.5 181s21.833 132.167 65.5 180.5s101.5 72.5 173.5 72.5s129.833 -24.167 173.5 -72.5s65.5 -108.5 65.5 -180.5s-21.833 -132.333 -65.5 -181s-101.5 -73 -173.5 -73zM286 55c49.333 0 88.333 18.167 117 54.5
s43 80.5 43 132.5s-14.333 96 -43 132s-67.667 54 -117 54s-88.333 -18 -117 -54s-43 -80 -43 -132s14.333 -96.167 43 -132.5s67.667 -54.5 117 -54.5zM436 604c0 -12.667 -4.66699 -23.5 -14 -32.5s-20.333 -13.5 -33 -13.5s-23.5 4.5 -32.5 13.5s-13.5 19.833 -13.5 32.5
s4.5 23.5 13.5 32.5s19.833 13.5 32.5 13.5c13.333 0 24.5 -4.5 33.5 -13.5s13.5 -19.833 13.5 -32.5zM229 604c0 -12.667 -4.5 -23.5 -13.5 -32.5s-19.833 -13.5 -32.5 -13.5s-23.667 4.5 -33 13.5s-14 19.833 -14 32.5s4.5 23.5 13.5 32.5s20.167 13.5 33.5 13.5
c12.667 0 23.5 -4.5 32.5 -13.5s13.5 -19.833 13.5 -32.5z" />
    <glyph glyph-name="divide" unicode="&#xf7;" horiz-adv-x="511" 
d="M302 527c0 -12.667 -4.5 -23.667 -13.5 -33s-19.833 -14 -32.5 -14s-23.5 4.66699 -32.5 14s-13.5 20.333 -13.5 33s4.5 23.334 13.5 32.001s19.833 13 32.5 13s23.5 -4.33301 32.5 -13s13.5 -19.334 13.5 -32.001zM482 311h-453v52h453v-52zM302 144
c0 -12.667 -4.5 -23.5 -13.5 -32.5s-19.833 -13.5 -32.5 -13.5s-23.5 4.5 -32.5 13.5s-13.5 19.833 -13.5 32.5s4.5 23.5 13.5 32.5s19.833 13.5 32.5 13.5s23.5 -4.5 32.5 -13.5s13.5 -19.833 13.5 -32.5z" />
    <glyph glyph-name="oslash" unicode="&#xf8;" 
d="M118 0l-54.002 0.000976562l48 61c-43.333 47.333 -65 107.666 -65 180.999c0 72 21.833 132.167 65.5 180.5s101.5 72.5 173.5 72.5c52.667 0 98.334 -13.667 137.001 -41l23 29h55l-45 -57c46 -48 69 -109.333 69 -184c0 -72 -21.833 -132.333 -65.5 -181
s-101.5 -73 -173.5 -73c-55.333 0 -102.666 15 -141.999 45zM285.998 55.001c49.333 0 88.332 18.168 116.999 54.501s43 80.5 43 132.5c0 49.333 -12.667 90.666 -38 123.999l-220 -277c26.667 -22.667 59.334 -34 98.001 -34zM125.997 242.002
c0 -48 11.333 -88.333 34 -121l218 277c-25.333 20 -56 30 -92 30c-49.333 0 -88.333 -18 -117 -54s-43 -80 -43 -132z" />
    <glyph glyph-name="ugrave" unicode="&#xf9;" horiz-adv-x="551" 
d="M476 0h-75v68c-20 -22.667 -45.167 -41.667 -75.5 -57s-62.5 -23 -96.5 -23c-102.667 0 -154 51.333 -154 154v341h75v-318c0 -40 9.33301 -68.333 28 -85s45.667 -25 81 -25c28 0 55 7 81 21s46.333 31.333 61 52v355h75v-483zM344 556h-57l-169 144h78z" />
    <glyph glyph-name="uacute" unicode="&#xfa;" horiz-adv-x="551" 
d="M476 0h-75v68c-20 -22.667 -45.167 -41.667 -75.5 -57s-62.5 -23 -96.5 -23c-102.667 0 -154 51.333 -154 154v341h75v-318c0 -40 9.33301 -68.333 28 -85s45.667 -25 81 -25c28 0 55 7 81 21s46.333 31.333 61 52v355h75v-483zM437 700l-169 -144h-57l148 144h78z" />
    <glyph glyph-name="ucircumflex" unicode="&#xfb;" horiz-adv-x="551" 
d="M476 0h-75v68c-20 -22.667 -45.167 -41.667 -75.5 -57s-62.5 -23 -96.5 -23c-102.667 0 -154 51.333 -154 154v341h75v-318c0 -40 9.33301 -68.333 28 -85s45.667 -25 81 -25c28 0 55 7 81 21s46.333 31.333 61 52v355h75v-483zM409 556h-51l-83 106l-80 -106h-51l95 144
h72z" />
    <glyph glyph-name="udieresis" unicode="&#xfc;" horiz-adv-x="551" 
d="M476 0h-75v68c-20 -22.667 -45.167 -41.667 -75.5 -57s-62.5 -23 -96.5 -23c-102.667 0 -154 51.333 -154 154v341h75v-318c0 -40 9.33301 -68.333 28 -85s45.667 -25 81 -25c28 0 55 7 81 21s46.333 31.333 61 52v355h75v-483zM429 604
c0 -12.667 -4.66699 -23.5 -14 -32.5s-20.333 -13.5 -33 -13.5s-23.5 4.5 -32.5 13.5s-13.5 19.833 -13.5 32.5s4.5 23.5 13.5 32.5s19.833 13.5 32.5 13.5c13.333 0 24.5 -4.5 33.5 -13.5s13.5 -19.833 13.5 -32.5zM222 604c0 -12.667 -4.5 -23.5 -13.5 -32.5
s-19.833 -13.5 -32.5 -13.5s-23.667 4.5 -33 13.5s-14 19.833 -14 32.5s4.5 23.5 13.5 32.5s20.167 13.5 33.5 13.5c12.667 0 23.5 -4.5 32.5 -13.5s13.5 -19.833 13.5 -32.5z" />
    <glyph glyph-name="yacute" unicode="&#xfd;" horiz-adv-x="551" 
d="M435 700l-169 -144h-57l148 144h78zM255 -196c-74.667 0 -136.332 24.334 -184.999 73.001l38 54c34.667 -43.333 83.667 -65 147 -65c45.333 0 81 12.333 107 37s39 59 39 103v72c-20 -22.667 -45.167 -41.667 -75.5 -57s-62.5 -23 -96.5 -23
c-102.667 0 -154 51.333 -154 154v331h75v-308c0 -40.667 9.33301 -69.334 28 -86.001s45.667 -25 81 -25c27.333 0 54.166 7.16699 80.499 21.5s46.833 31.5 61.5 51.5v346h75v-477c0 -65.333 -21 -115.333 -63 -150s-94.667 -52 -158 -52z" />
    <glyph glyph-name="thorn" unicode="&#xfe;" 
d="M313 -12c-66 0 -120.333 28.334 -163 85.001v-257h-75v851h75v-256c18 25.333 41.333 45.666 70 60.999s59.667 23 93 23c64 0 115.833 -22.833 155.5 -68.5s59.5 -107.167 59.5 -184.5s-19.833 -139 -59.5 -185s-91.5 -69 -155.5 -69zM294 55.001
c47.333 0 85 17.499 113 52.499s42 79.833 42 134.5s-14 99.334 -42 134.001s-65.667 52 -113 52c-28.667 0 -56.5 -7.5 -83.5 -22.5s-47.167 -33.167 -60.5 -54.5v-218c13.333 -22 33.5 -40.5 60.5 -55.5s54.833 -22.5 83.5 -22.5z" />
    <glyph glyph-name="ydieresis" unicode="&#xff;" horiz-adv-x="551" 
d="M422 604c0 -12.667 -4.66699 -23.5 -14 -32.5s-20.333 -13.5 -33 -13.5s-23.5 4.5 -32.5 13.5s-13.5 19.833 -13.5 32.5s4.5 23.5 13.5 32.5s19.833 13.5 32.5 13.5c13.333 0 24.5 -4.5 33.5 -13.5s13.5 -19.833 13.5 -32.5zM215 604c0 -12.667 -4.5 -23.5 -13.5 -32.5
s-19.833 -13.5 -32.5 -13.5s-23.667 4.5 -33 13.5s-14 19.833 -14 32.5s4.5 23.5 13.5 32.5s20.167 13.5 33.5 13.5c12.667 0 23.5 -4.5 32.5 -13.5s13.5 -19.833 13.5 -32.5zM255 -196c-74.667 0 -136.332 24.334 -184.999 73.001l38 54c34.667 -43.333 83.667 -65 147 -65
c45.333 0 81 12.333 107 37s39 59 39 103v72c-20 -22.667 -45.167 -41.667 -75.5 -57s-62.5 -23 -96.5 -23c-102.667 0 -154 51.333 -154 154v331h75v-308c0 -40.667 9.33301 -69.334 28 -86.001s45.667 -25 81 -25c27.333 0 54.166 7.16699 80.499 21.5
s46.833 31.5 61.5 51.5v346h75v-477c0 -65.333 -21 -115.333 -63 -150s-94.667 -52 -158 -52z" />
    <glyph glyph-name="dotlessi" unicode="&#x131;" horiz-adv-x="225" 
d="M150 0h-75v483h75v-483z" />
    <glyph glyph-name="Lslash" unicode="&#x141;" horiz-adv-x="524" 
d="M10 221v72l88 51v323h83v-275l96 55v-72l-96 -55v-246h310v-74h-393v272z" />
    <glyph glyph-name="lslash" unicode="&#x142;" horiz-adv-x="299" 
d="M10 228v60l95 54v325h75v-282l96 55v-60l-96 -55v-208c0 -18.667 4.16699 -33.667 12.5 -45s20.5 -17 36.5 -17c22 0 38.667 7 50 21l23 -57c-22.667 -20.667 -52.667 -31 -90 -31c-35.333 0 -62 9.66699 -80 29s-27 47.333 -27 84v181z" />
    <glyph glyph-name="OE" unicode="&#x152;" horiz-adv-x="1105" 
d="M1051 0l-437 0.000976562v121c-24 -42.667 -57.667 -75.5 -101 -98.5s-89.333 -34.5 -138 -34.5c-96 0 -174 32.667 -234 98s-90 147.666 -90 246.999s30 181.5 90 246.5s138 97.5 234 97.5c48.667 0 94.667 -11.333 138 -34s77 -55 101 -97v121h437v-74h-354v-215h347
v-74h-347v-230h354v-74zM614 224.001l-0.000976562 218.998c-19.333 52 -49.166 91.667 -89.499 119s-86.833 41 -139.5 41c-75.333 0 -135.5 -25.167 -180.5 -75.5s-67.5 -115.166 -67.5 -194.499c0 -78.667 22.5 -143.5 67.5 -194.5s105.167 -76.5 180.5 -76.5
c52 0 98.333 13.833 139 41.5s70.667 67.834 90 120.501z" />
    <glyph glyph-name="oe" unicode="&#x153;" horiz-adv-x="962" 
d="M916 217l-390.004 -0.00195312c3.33301 -47.333 20.5 -87 51.5 -119s71.5 -48 121.5 -48c60 0 110 20.667 150 62l36 -49c-51.333 -50 -115.333 -75 -192 -75c-55.333 0 -99.666 13.833 -132.999 41.5s-58.333 59.834 -75 96.501
c-41.333 -92 -107.666 -138 -198.999 -138c-72 0 -129.833 24.333 -173.5 73s-65.5 109 -65.5 181s21.833 132.167 65.5 180.5s101.5 72.5 173.5 72.5c28 0 54 -4.66699 78 -14s43.833 -21.5 59.5 -36.5s28.334 -29.5 38.001 -43.5s17.834 -28.667 24.501 -44
c14.667 34.667 38.5 66.334 71.5 95.001s75.167 43 126.5 43c71.333 0 127.833 -24.5 169.5 -73.5s62.5 -110.833 62.5 -185.5v-19zM524.996 272.998h317.999c-1.33301 40.667 -15.666 77.5 -42.999 110.5s-66 49.5 -116 49.5c-48 0 -86 -16.333 -114 -49
s-43 -69.667 -45 -111zM445.995 241.998c0 52.667 -14.5 96.834 -43.5 132.501s-67.833 53.5 -116.5 53.5s-87.5 -17.833 -116.5 -53.5s-43.5 -79.834 -43.5 -132.501c0 -53.333 14.5 -98 43.5 -134s67.833 -54 116.5 -54s87.5 18 116.5 54s43.5 80.667 43.5 134z" />
    <glyph glyph-name="Scaron" unicode="&#x160;" horiz-adv-x="586" 
d="M323 728h-72l-98 144h51l83 -106l80 106h51zM294 -12c-108 0 -193.335 35.3271 -256.002 105.994l50 64c55.333 -64 125 -96 209 -96c54 0 93.667 11.667 119 35s38 50.333 38 81c0 31.333 -13.5 56.333 -40.5 75s-60 32.834 -99 42.501s-77.833 20.334 -116.5 32.001
s-71.5 31 -98.5 58s-40.5 62.5 -40.5 106.5c0 54.667 21.667 99.334 65 134.001s98.333 52 165 52c98 0 176.667 -31.333 236 -94l-50 -61c-47.333 53.333 -111.666 80 -192.999 80c-40 0 -72.833 -9.83301 -98.5 -29.5s-38.5 -45.167 -38.5 -76.5
c0 -23.333 9.83301 -42.666 29.5 -57.999s44 -26.666 73 -33.999s60.667 -16.5 95 -27.5s66 -22.667 95 -35s53.333 -32.166 73 -59.499s29.5 -60.333 29.5 -99c0 -54 -20.167 -100.167 -60.5 -138.5s-102.166 -57.5 -185.499 -57.5z" />
    <glyph glyph-name="scaron" unicode="&#x161;" horiz-adv-x="465" 
d="M229 -12c-81.333 0 -146.333 25.3369 -195 76.0039l38 54c16.667 -19.333 39.5 -35.666 68.5 -48.999s59.167 -20 90.5 -20c36 0 64.167 7.66699 84.5 23s30.5 35.333 30.5 60c0 21.333 -10.333 38.166 -31 50.499s-45.667 21.666 -75 27.999s-58.5 13.666 -87.5 21.999
s-53.833 22.666 -74.5 42.999s-31 47.166 -31 80.499c0 39.333 16 72.333 48 99s75.667 40 131 40c74 0 133.667 -23.333 179 -70l-35 -52c-34 40.667 -82 61 -144 61c-32.667 0 -58.667 -7.16699 -78 -21.5s-29 -32.5 -29 -54.5c0 -16 7.33301 -29.333 22 -40
s33.167 -18.334 55.5 -23.001s46.333 -10.667 72 -18s49.667 -15.5 72 -24.5s40.833 -23.667 55.5 -44s22 -45.166 22 -74.499c0 -42.667 -16.5 -77.667 -49.5 -105s-79.5 -41 -139.5 -41zM266 556.004h-72l-98 144h51l83 -106l80 106h51z" />
    <glyph glyph-name="Ydieresis" unicode="&#x178;" horiz-adv-x="626" 
d="M466 773c0 -12.667 -4.66699 -23.5 -14 -32.5s-20.333 -13.5 -33 -13.5s-23.5 4.5 -32.5 13.5s-13.5 19.833 -13.5 32.5s4.5 23.5 13.5 32.5s19.833 13.5 32.5 13.5c13.333 0 24.5 -4.5 33.5 -13.5s13.5 -19.833 13.5 -32.5zM259 773c0 -12.667 -4.5 -23.5 -13.5 -32.5
s-19.833 -13.5 -32.5 -13.5s-23.667 4.5 -33 13.5s-14 19.833 -14 32.5s4.5 23.5 13.5 32.5s20.167 13.5 33.5 13.5c12.667 0 23.5 -4.5 32.5 -13.5s13.5 -19.833 13.5 -32.5zM355 0h-83v282l-263 385h97l207 -310l207 310h97l-262 -385v-282z" />
    <glyph glyph-name="Zcaron" unicode="&#x17d;" horiz-adv-x="585" 
d="M330 728h-72l-98 144h51l83 -106l80 106h51zM537 0h-489v69l375 524h-375v74h482v-69l-376 -524h383v-74z" />
    <glyph glyph-name="zcaron" unicode="&#x17e;" horiz-adv-x="472" 
d="M420 0h-368v59l266 358h-266v66h364v-57l-268 -360h272v-66zM267 556h-72l-98 144h51l83 -106l80 106h51z" />
    <glyph glyph-name="florin" unicode="&#x192;" horiz-adv-x="432" 
d="M109 -161h-84l92 415h-68v68h82l46 204c10 46.667 30.667 83.5 62 110.5s68.666 40.5 111.999 40.5c40.667 0 72 -12 94 -36l-37 -61c-11.333 15.333 -27.666 23 -48.999 23c-24.667 0 -46 -8.16699 -64 -24.5s-30.333 -38.833 -37 -67.5l-42 -189h139v-68h-153z" />
    <glyph glyph-name="circumflex" unicode="&#x2c6;" horiz-adv-x="265" 
d="M265 556h-51l-83 106l-80 -106h-51l95 144h72z" />
    <glyph glyph-name="caron" unicode="&#x2c7;" horiz-adv-x="265" 
d="M170 556h-72l-98 144h51l83 -106l80 106h51z" />
    <glyph glyph-name="breve" unicode="&#x2d8;" horiz-adv-x="351" 
d="M351 651c-43.333 -58.667 -101.666 -88 -174.999 -88c-72.667 0 -131.334 29.333 -176.001 88l38 32c34 -48 80 -72 138 -72c58.667 0 105 24 139 72z" />
    <glyph glyph-name="dotaccent" unicode="&#x2d9;" horiz-adv-x="112" 
d="M56 573c-12.667 0 -23.667 4.66699 -33 14s-14 20.333 -14 33s4.66699 23.667 14 33s20.333 14 33 14c13.333 0 24.5 -4.5 33.5 -13.5s13.5 -20.167 13.5 -33.5s-4.5 -24.5 -13.5 -33.5s-20.167 -13.5 -33.5 -13.5z" />
    <glyph glyph-name="ring" unicode="&#x2da;" horiz-adv-x="196" 
d="M99 554c-27.333 0 -50.666 9.66699 -69.999 29s-29 42.666 -29 69.999s9.66699 50.666 29 69.999s42.666 29 69.999 29c26.667 0 49.5 -9.66699 68.5 -29s28.5 -42.666 28.5 -69.999s-9.5 -50.666 -28.5 -69.999s-41.833 -29 -68.5 -29zM99 594
c16 0 29.667 5.83301 41 17.5s17 25.5 17 41.5s-5.66699 29.833 -17 41.5s-25 17.5 -41 17.5c-16.667 0 -30.667 -5.83301 -42 -17.5s-17 -25.5 -17 -41.5s5.66699 -29.833 17 -41.5s25.333 -17.5 42 -17.5z" />
    <glyph glyph-name="ogonek" unicode="&#x2db;" horiz-adv-x="178" 
d="M141 -105l36.998 -21.002c-17.333 -40 -46.666 -60 -87.999 -60c-25.333 0 -46.666 7.33301 -63.999 22s-26 36.334 -26 65.001c0 24.667 8 47.667 24 69s37.333 39 64 53l33 -23c-50.667 -25.333 -76 -57.666 -76 -96.999c0 -33.333 15 -50 45 -50
c24.667 0 41.667 14 51 42z" />
    <glyph glyph-name="tilde" unicode="&#x2dc;" horiz-adv-x="313" 
d="M216 554c-16 0 -30.167 4.83301 -42.5 14.5s-21.666 20.167 -27.999 31.5s-14 21.833 -23 31.5s-18.833 14.5 -29.5 14.5c-14 0 -25.5 -7.16699 -34.5 -21.5s-13.5 -35.833 -13.5 -64.5h-45c0 40 8.5 72.333 25.5 97s40.833 37 71.5 37c16 0 30.167 -4.83301 42.5 -14.5
s21.666 -20.167 27.999 -31.5s14 -21.833 23 -31.5s18.833 -14.5 29.5 -14.5c14 0 25.5 7.16699 34.5 21.5s13.5 35.833 13.5 64.5h45c0 -40 -8.5 -72.333 -25.5 -97s-40.833 -37 -71.5 -37z" />
    <glyph glyph-name="hungarumlaut" unicode="&#x2dd;" horiz-adv-x="305" 
d="M163 700l-115 -144h-48l94 144h69zM305 700l-115 -144h-48l94 144h69z" />
    <glyph glyph-name="pi" unicode="&#x3c0;" horiz-adv-x="561" 
d="M452 0h-76v433h-191v-433h-76v433h-77v67h497v-67h-77v-433z" />
    <glyph glyph-name="endash" unicode="&#x2013;" horiz-adv-x="593" 
d="M563 209h-533v66h533v-66z" />
    <glyph glyph-name="emdash" unicode="&#x2014;" horiz-adv-x="833" 
d="M803 209h-773v66h773v-66z" />
    <glyph glyph-name="quoteleft" unicode="&#x2018;" horiz-adv-x="230" 
d="M48 527c0 29.333 7.50098 57.501 22.501 84.501s34.167 48.833 57.5 65.5l38 -30c-16 -10.667 -30.333 -24.834 -43 -42.501s-20 -34.5 -22 -50.5c0.666992 0 2.66699 0.333008 6 1s6 1 8 1c13.333 0 24.666 -4.83301 33.999 -14.5s14 -21.834 14 -36.501
c0 -15.333 -5.16699 -28.166 -15.5 -38.499s-22.833 -15.5 -37.5 -15.5c-17.333 0 -32 6.83301 -44 20.5s-18 32.167 -18 55.5z" />
    <glyph glyph-name="quoteright" unicode="&#x2019;" horiz-adv-x="230" 
d="M176 601c0 -29.333 -7.5 -57.5029 -22.5 -84.5029s-34.5 -49.167 -58.5 -66.5l-38 31c16 10.667 30.333 24.834 43 42.501s20 34.5 22 50.5c-2.66699 -1.33301 -7.33398 -2 -14.001 -2c-13.333 0 -24.666 4.83301 -33.999 14.5s-14 21.834 -14 36.501
s5.16699 27.334 15.5 38.001s22.833 16 37.5 16c18 0 33 -6.83301 45 -20.5s18 -32.167 18 -55.5z" />
    <glyph glyph-name="quotesinglbase" unicode="&#x201a;" horiz-adv-x="230" 
d="M176 24c0 -29.333 -7.5 -57.5029 -22.5 -84.5029s-34.5 -49.167 -58.5 -66.5l-38 31c16.667 10.667 31.167 24.834 43.5 42.501s19.5 34.5 21.5 50.5c-2.66699 -1.33301 -7.33398 -2 -14.001 -2c-13.333 0 -24.666 4.83301 -33.999 14.5s-14 21.834 -14 36.501
s5.16699 27.334 15.5 38.001s22.833 16 37.5 16c18 0 33 -6.83301 45 -20.5s18 -32.167 18 -55.5z" />
    <glyph glyph-name="quotedblleft" unicode="&#x201c;" horiz-adv-x="390" 
d="M54 527c0 29.333 7.50098 57.501 22.501 84.501s34.5 48.833 58.5 65.5l37 -30c-16 -10.667 -30.167 -24.834 -42.5 -42.501s-19.5 -34.5 -21.5 -50.5l5 1c3.33301 0.666992 6 1 8 1c14 0 25.667 -4.83301 35 -14.5s14 -21.834 14 -36.501
c0 -15.333 -5.33301 -28.166 -16 -38.499s-23.334 -15.5 -38.001 -15.5c-17.333 0 -32 6.83301 -44 20.5s-18 32.167 -18 55.5zM214.001 527.001c0 29.333 7.50195 57.501 22.502 84.501s34.5 48.833 58.5 65.5l37 -30c-16 -10.667 -30.167 -24.834 -42.5 -42.501
s-19.5 -34.5 -21.5 -50.5c0.666992 0 2.66699 0.333008 6 1s5.66602 1 6.99902 1c14 0 25.667 -4.83301 35 -14.5s14 -21.834 14 -36.501c0 -15.333 -5.33301 -28.166 -16 -38.499s-23.334 -15.5 -38.001 -15.5c-17.333 0 -32 6.83301 -44 20.5s-18 32.167 -18 55.5z" />
    <glyph glyph-name="quotedblright" unicode="&#x201d;" horiz-adv-x="390" 
d="M336 601c0 -29.333 -7.50195 -57.5029 -22.502 -84.5029s-34.5 -49.167 -58.5 -66.5l-37 31c16 10.667 30.167 24.834 42.5 42.501s19.5 34.5 21.5 50.5c-1.33301 -1.33301 -5.66602 -2 -12.999 -2c-14 0 -25.667 4.83301 -35 14.5s-14 21.834 -14 36.501
s5.33301 27.334 16 38.001s23.334 16 38.001 16c17.333 0 32 -6.83301 44 -20.5s18 -32.167 18 -55.5zM175.998 600.997c0 -29.333 -7.5 -57.5029 -22.5 -84.5029s-34.5 -49.167 -58.5 -66.5l-38 31c16 10.667 30.333 24.834 43 42.501s20 34.5 22 50.5
c-2.66699 -1.33301 -7.33398 -2 -14.001 -2c-13.333 0 -24.666 4.83301 -33.999 14.5s-14 21.834 -14 36.501s5.16699 27.334 15.5 38.001s22.833 16 37.5 16c18 0 33 -6.83301 45 -20.5s18 -32.167 18 -55.5z" />
    <glyph glyph-name="quotedblbase" unicode="&#x201e;" horiz-adv-x="390" 
d="M176 24c0 -29.333 -7.5 -57.5029 -22.5 -84.5029s-34.5 -49.167 -58.5 -66.5l-38 31c16.667 10.667 31.167 24.834 43.5 42.501s19.5 34.5 21.5 50.5c-2.66699 -1.33301 -7.33398 -2 -14.001 -2c-13.333 0 -24.666 4.83301 -33.999 14.5s-14 21.834 -14 36.501
s5.16699 27.334 15.5 38.001s22.833 16 37.5 16c18 0 33 -6.83301 45 -20.5s18 -32.167 18 -55.5zM336 23.9971c0 -29.333 -7.50195 -57.5029 -22.502 -84.5029s-34.5 -49.167 -58.5 -66.5l-37 31c16 10.667 30.167 24.834 42.5 42.501s19.5 34.5 21.5 50.5
c-1.33301 -1.33301 -5.66602 -2 -12.999 -2c-14 0 -25.667 4.83301 -35 14.5s-14 21.834 -14 36.501s5.33301 27.334 16 38.001s23.334 16 38.001 16c17.333 0 32 -6.83301 44 -20.5s18 -32.167 18 -55.5z" />
    <glyph glyph-name="dagger" unicode="&#x2020;" horiz-adv-x="263" 
d="M240 531l-89 4l4 -208h-48l5 208l-89 -4v43l89 -3l-5 106h48l-4 -106l89 3v-43z" />
    <glyph glyph-name="daggerdbl" unicode="&#x2021;" horiz-adv-x="263" 
d="M240 574v-43l-89 4v-213l89 4v-43l-89 3l4 -106h-48l4 106l-88 -3v43l88 -4v213l-88 -4v43l88 -3l-4 106h48l-4 -106z" />
    <glyph glyph-name="bullet" unicode="&#x2022;" horiz-adv-x="358" 
d="M288 242c0 -29.333 -10.667 -54.5 -32 -75.5s-46.666 -31.5 -75.999 -31.5s-54.666 10.5 -75.999 31.5s-32 46.167 -32 75.5s10.667 54.666 32 75.999s46.666 32 75.999 32s54.666 -10.667 75.999 -32s32 -46.666 32 -75.999z" />
    <glyph glyph-name="ellipsis" unicode="&#x2026;" horiz-adv-x="691" 
d="M170 45c0 -14.667 -5.5 -27.5 -16.5 -38.5s-23.833 -16.5 -38.5 -16.5s-27.5 5.5 -38.5 16.5s-16.5 23.833 -16.5 38.5c0 15.333 5.33301 28.333 16 39s23.667 16 39 16s28.333 -5.33301 39 -16s16 -23.667 16 -39zM400 45c0 -14.667 -5.5 -27.5 -16.5 -38.5
s-23.833 -16.5 -38.5 -16.5s-27.5 5.5 -38.5 16.5s-16.5 23.833 -16.5 38.5c0 15.333 5.33301 28.333 16 39s23.667 16 39 16s28.333 -5.33301 39 -16s16 -23.667 16 -39zM630 45c0 -14.667 -5.33301 -27.5 -16 -38.5s-23.334 -16.5 -38.001 -16.5s-27.5 5.5 -38.5 16.5
s-16.5 23.833 -16.5 38.5c0 15.333 5.5 28.333 16.5 39s23.833 16 38.5 16s27.334 -5.33301 38.001 -16s16 -23.667 16 -39z" />
    <glyph glyph-name="perthousand" unicode="&#x2030;" horiz-adv-x="1084" 
d="M353 511c0 -46.667 -15 -85.5 -45 -116.5s-68.667 -46.5 -116 -46.5s-86 15.5 -116 46.5s-45 69.833 -45 116.5c0 48 15 87.667 45 119s68.667 47 116 47s86 -15.667 116 -47s45 -71 45 -119zM610 667l-427 -667h-55l426 667h56zM700 152
c0 -47.333 -14.833 -86.5 -44.5 -117.5s-68.167 -46.5 -115.5 -46.5s-86 15.667 -116 47s-45 70.333 -45 117c0 47.333 15 86.666 45 117.999s68.667 47 116 47c46.667 0 85 -15.667 115 -47s45 -70.666 45 -117.999zM293 511c0 34.667 -9.33301 63.167 -28 85.5
s-43 33.5 -73 33.5c-29.333 0 -53.5 -11.167 -72.5 -33.5s-28.5 -50.833 -28.5 -85.5c0 -32.667 9.5 -60.167 28.5 -82.5s43.167 -33.5 72.5 -33.5s53.5 11.167 72.5 33.5s28.5 49.833 28.5 82.5zM641 152c0 34 -9.33301 62.167 -28 84.5s-43 33.5 -73 33.5
s-54.5 -11.167 -73.5 -33.5s-28.5 -50.5 -28.5 -84.5c0 -33.333 9.5 -61.166 28.5 -83.499s43.5 -33.5 73.5 -33.5c29.333 0 53.5 11.167 72.5 33.5s28.5 50.166 28.5 83.499zM1053 152c0 -46.667 -15 -85.667 -45 -117s-68.667 -47 -116 -47s-86 15.667 -116 47
s-45 70.333 -45 117c0 47.333 15 86.666 45 117.999s68.667 47 116 47s86 -15.667 116 -47s45 -70.666 45 -117.999zM993 152c0 34 -9.33301 62.167 -28 84.5s-43 33.5 -73 33.5s-54.333 -11.167 -73 -33.5s-28 -50.5 -28 -84.5c0 -33.333 9.5 -61.166 28.5 -83.499
s43.167 -33.5 72.5 -33.5s53.5 11.167 72.5 33.5s28.5 50.166 28.5 83.499z" />
    <glyph glyph-name="guilsinglleft" unicode="&#x2039;" horiz-adv-x="295" 
d="M265 63h-75l-160 180l160 177h75l-160 -177z" />
    <glyph glyph-name="guilsinglright" unicode="&#x203a;" horiz-adv-x="295" 
d="M265 243l-160 -180h-75l160 180l-160 177h75z" />
    <glyph glyph-name="fraction" unicode="&#x2044;" horiz-adv-x="139" 
d="M310 667l-427 -667h-54l426 667h55z" />
    <glyph glyph-name="Euro" unicode="&#x20ac;" horiz-adv-x="695" 
d="M416 -12c-80.667 0 -151.167 22.498 -211.5 67.498s-100.166 105.5 -119.499 181.5h-54v52h44c-1.33301 18.667 -2 33.334 -2 44.001s0.666992 26 2 46h-44v53h55c20 74.667 60 134.334 120 179.001s130 67 210 67c107.333 0 191.666 -44 252.999 -132l-69 -39
c-19.333 29.333 -45.5 52.833 -78.5 70.5s-68.167 26.5 -105.5 26.5c-56.667 0 -106.667 -15.5 -150 -46.5s-74 -72.833 -92 -125.5h302v-53h-314c-2 -14.667 -3 -30 -3 -46c0 -15.333 1 -30 3 -44h314v-52h-302c17.333 -53.333 47.833 -95.833 91.5 -127.5
s93.834 -47.5 150.501 -47.5c37.333 0 72.5 9 105.5 27s59.167 41.333 78.5 70l70 -38c-64.667 -88.667 -149.334 -133 -254.001 -133z" />
    <glyph glyph-name="trademark" unicode="&#x2122;" horiz-adv-x="454" 
d="M419 447h-28v182l-75 -182h-8l-75 182v-182h-28v220h43l64 -160l64 160h43v-220zM169 641h-62v-194h-28v194h-62v26h152v-26z" />
    <glyph glyph-name="Omega" unicode="&#x2126;" horiz-adv-x="765" 
d="M69 0v74h135c-102 66.667 -153 158 -153 274c0 96.667 30.667 175.834 92 237.501s141 92.5 239 92.5c98.667 0 178.667 -30.833 240 -92.5s92 -140.834 92 -237.501c0 -61.333 -14.167 -115 -42.5 -161s-65.166 -83.667 -110.499 -113h135v-74h-240v74
c47.333 12 87.833 41.167 121.5 87.5s50.5 103.833 50.5 172.5c0 76.667 -21.833 140.667 -65.5 192s-103.834 77 -180.501 77c-76 0 -135.833 -25.667 -179.5 -77s-65.5 -115.333 -65.5 -192c0 -68.667 16.833 -126.167 50.5 -172.5s74.167 -75.5 121.5 -87.5v-74h-240z
" />
    <glyph glyph-name="partialdiff" unicode="&#x2202;" 
d="M286 -12c-72 0 -129.833 23.501 -173.5 70.501s-65.5 105.5 -65.5 175.5c0 69.333 20.667 127.5 62 174.5s94 70.5 158 70.5c66 0 117.667 -27.333 155 -82c-20 45.333 -51.5 88.833 -94.5 130.5s-94.5 77.167 -154.5 106.5l56 47c82 -43.333 151.833 -103 209.5 -179
s86.5 -160.333 86.5 -253c0 -76.667 -21.667 -139.334 -65 -188.001s-101.333 -73 -174 -73zM286 55.001c49.333 0 88.333 17.167 117 51.5s43 76.833 43 127.5c0 50 -14.333 92.167 -43 126.5s-67.667 51.5 -117 51.5s-88.333 -17.167 -117 -51.5s-43 -76.5 -43 -126.5
c0 -50.667 14.333 -93.167 43 -127.5s67.667 -51.5 117 -51.5z" />
    <glyph glyph-name="Delta" unicode="&#x2206;" horiz-adv-x="658" 
d="M649 0h-640l269 667h103zM530 74l-201 508l-201 -508h402z" />
    <glyph glyph-name="product" unicode="&#x220f;" horiz-adv-x="708" 
d="M566 -90h-83v683h-259v-683h-83v683h-109v74h644v-74h-110v-683z" />
    <glyph glyph-name="summation" unicode="&#x2211;" horiz-adv-x="576" 
d="M158 593l228 -294l-232 -315h368v-74h-468v74l231 314l-230 296v73h467v-74h-364z" />
    <glyph glyph-name="minus" unicode="&#x2212;" horiz-adv-x="499" 
d="M470 308h-441v52h441v-52z" />
    <glyph glyph-name="radical" unicode="&#x221a;" horiz-adv-x="725" 
d="M427 0h-58l-130 327l-155 -61l-18 50l206 79l127 -317l235 589h59z" />
    <glyph glyph-name="infinity" unicode="&#x221e;" horiz-adv-x="656" 
d="M184 170c-50 0 -88.333 16.5 -115 49.5s-40 71.5 -40 115.5c0 44.667 13.167 83.5 39.5 116.5s64.833 49.5 115.5 49.5c31.333 0 59.5 -10.333 84.5 -31s44.833 -47 59.5 -79c14.667 32 34.5 58.333 59.5 79s53.5 31 85.5 31c50.667 0 89 -16.333 115 -49
s39 -71.667 39 -117c0 -44 -13.167 -82.5 -39.5 -115.5s-64.5 -49.5 -114.5 -49.5c-32 0 -60.5 10.333 -85.5 31s-44.833 47 -59.5 79c-14.667 -32 -34.5 -58.333 -59.5 -79s-53.167 -31 -84.5 -31zM468 223c32 0 57.167 10.5 75.5 31.5s27.5 47.833 27.5 80.5
c0 33.333 -9.16699 60.5 -27.5 81.5s-43.5 31.5 -75.5 31.5c-48 0 -86.333 -37.667 -115 -113c28.667 -74.667 67 -112 115 -112zM189 223c48 0 86.333 37.333 115 112c-12 32 -27.667 58.833 -47 80.5s-42 32.5 -68 32.5c-32 0 -57.333 -10.5 -76 -31.5
s-28 -48.167 -28 -81.5c0 -32.667 9.33301 -59.5 28 -80.5s44 -31.5 76 -31.5z" />
    <glyph glyph-name="integral" unicode="&#x222b;" horiz-adv-x="348" 
d="M78 -100h-61v55h61c18 0 33.667 7.66699 47 23s20 34.333 20 57v598c0 40 12.5 72.5 37.5 97.5s54.167 37.5 87.5 37.5h61v-55h-61c-18.667 0 -34.5 -7.5 -47.5 -22.5s-19.5 -33.833 -19.5 -56.5v-600c0 -39.333 -12.5 -71.5 -37.5 -96.5s-54.167 -37.5 -87.5 -37.5z" />
    <glyph glyph-name="approxequal" unicode="&#x2248;" horiz-adv-x="499" 
d="M29 211l0.000976562 59c31.333 -22 68 -33 110 -33c31.333 0 66.333 9.66699 105 29s77 29 115 29c40 0 77 -9 111 -27v-59c-32.667 22.667 -69.667 34 -111 34c-31.333 0 -66.333 -9.83301 -105 -29.5s-77 -29.5 -115 -29.5c-40.667 0 -77.334 9 -110.001 27z
M29.001 400l0.000976562 59c31.333 -22 68 -33 110 -33c31.333 0 66.333 9.66699 105 29s77 29 115 29c40 0 77 -9 111 -27v-59c-31.333 22 -68.333 33 -111 33c-31.333 0 -66.333 -9.66699 -105 -29s-77 -29 -115 -29c-40.667 0 -77.334 9 -110.001 27z" />
    <glyph glyph-name="notequal" unicode="&#x2260;" horiz-adv-x="499" 
d="M123 93h-54l75 118h-115v53h148l89 140h-237v53h271l75 117h55l-75 -117h115v-53h-149l-89 -140h238v-53h-272z" />
    <glyph glyph-name="lessequal" unicode="&#x2264;" horiz-adv-x="499" 
d="M470 99l-441 218v53l441 219v-63l-377 -183l377 -181v-63zM470 0h-441v53h441v-53z" />
    <glyph glyph-name="greaterequal" unicode="&#x2265;" horiz-adv-x="499" 
d="M470 317l-441 -218v63l376 181l-376 183v63l441 -219v-53zM469 0h-441v53h441v-53z" />
    <glyph glyph-name="lozenge" unicode="&#x25ca;" horiz-adv-x="375" 
d="M198 0h-21l-158 334l158 333h21l158 -333zM188 41l132 293l-133 292l-132 -292z" />
    <glyph glyph-name="apple" unicode="&#xf8ff;" horiz-adv-x="667" 
d="M226 154l0.000976562 74h-74c-20.667 0 -37.834 -7.16699 -51.501 -21.5s-20.5 -31.833 -20.5 -52.5s7 -38.334 21 -53.001s31.333 -22 52 -22s38 7.33301 52 22s21 32.334 21 53.001zM226.001 439l0.000976562 75.001c0 20.667 -6.83301 38.167 -20.5 52.5
s-30.834 21.5 -51.501 21.5s-38.167 -7.16699 -52.5 -21.5s-21.5 -31.833 -21.5 -52.5s7.16699 -38.334 21.5 -53.001s31.833 -22 52.5 -22h72zM265.002 265.001h137v137h-137v-137zM587.002 154.001c0 20.667 -6.83203 38.167 -20.499 52.5s-30.834 21.5 -51.501 21.5h-74
v-74c0 -20.667 7 -38.334 21 -53.001s31.333 -22 52 -22s38 7.33301 52 22s21 32.334 21 53.001zM587.003 514.001c0 20.667 -7 38.166 -21 52.499s-31.333 21.5 -52 21.5s-38 -7.16699 -52 -21.5s-21 -31.833 -21 -52.5v-75h74c20 0 37 7.33301 51 22s21 32.334 21 53.001z
M625.003 154c0 -30.667 -10.834 -57 -32.501 -79s-47.834 -33 -78.501 -33s-57 11 -79 33s-33 48.333 -33 79v74h-137v-74c0 -30.667 -11 -57 -33 -79s-48.333 -33 -79 -33s-56.834 11 -78.501 33s-32.5 48.333 -32.5 79s10.833 56.834 32.5 78.501s47.834 32.5 78.501 32.5
h73v137h-72c-30.667 0 -57 11 -79 33s-33 48.333 -33 79s11 56.834 33 78.501s48.333 32.5 79 32.5s56.834 -10.833 78.501 -32.5s32.5 -47.834 32.5 -78.501v-75h137v75c0 30.667 11 56.834 33 78.501s48.333 32.5 79 32.5s56.834 -10.833 78.501 -32.5
s32.5 -47.834 32.5 -78.501s-10.833 -57 -32.5 -79s-47.834 -33 -78.501 -33h-73v-137h73c30.667 0 56.834 -10.833 78.501 -32.5s32.5 -47.834 32.5 -78.501z" />
    <glyph glyph-name=".null" horiz-adv-x="0" 
 />
    <glyph glyph-name="nonmarkingreturn" horiz-adv-x="333" 
 />
    </font>
</defs>
</svg>
